<?xml version="1.0" standalone="no"?>
<!DOCTYPE svg PUBLIC "-//W3C//DTD SVG 1.1//EN" "http://www.w3.org/Graphics/SVG/1.1/DTD/svg11.dtd" >
<svg>
<metadata>
Created by FontForge 20120731 at Sat Jun 29 20:51:00 2019
 By www
Copyright (c) 2009 by Hannes von Doehren. All rights reserved.
</metadata>
<defs>
<font id="BrandonGrotW01-Regular" horiz-adv-x="482" >
  <font-face 
    font-family="BrandonGrotW01-Regular"
    font-weight="400"
    font-stretch="normal"
    units-per-em="1000"
    panose-1="2 11 5 3 2 2 3 6 2 2"
    ascent="700"
    descent="-300"
    x-height="400"
    cap-height="700"
    bbox="-128.25 -310 946 976"
    underline-thickness="50"
    underline-position="-100"
    unicode-range="U+0002-2122"
  />
<missing-glyph horiz-adv-x="0" 
 />
    <glyph glyph-name=".notdef" horiz-adv-x="0" 
 />
    <glyph glyph-name=".null" horiz-adv-x="0" 
 />
    <glyph glyph-name="uni000D" unicode="&#xd;" horiz-adv-x="0" 
 />
    <glyph glyph-name="uni0002" horiz-adv-x="0" 
 />
    <glyph glyph-name="uni0009" unicode="&#x9;" horiz-adv-x="0" 
 />
    <glyph glyph-name="uni000A" unicode="&#xa;" horiz-adv-x="0" 
 />
    <glyph glyph-name="space" unicode=" " horiz-adv-x="222" 
 />
    <glyph glyph-name="exclam" unicode="!" horiz-adv-x="298" 
d="M143 272q-7 0 -12.5 5t-6.5 11l-19 279v114q0 8 5.5 13.5t13.5 5.5h50q8 0 13.5 -5.5t5.5 -13.5v-112l-19 -281q-1 -6 -6.5 -11t-12.5 -5h-12zM92 47q0 24 17 40.5t40 16.5q24 0 40.5 -16.5t16.5 -40.5q0 -23 -16.5 -40t-40.5 -17q-23 0 -40 17t-17 40z" />
    <glyph glyph-name="quotedbl" unicode="&#x22;" horiz-adv-x="307" 
d="M219 501q-8 0 -13.5 5.5t-5.5 13.5v161q0 8 5.5 13.5t13.5 5.5h34q10 0 15.5 -7t2.5 -18l-28 -159q-2 -6 -7.5 -10.5t-10.5 -4.5h-6zM68 501q-8 0 -13.5 5.5t-5.5 13.5v161q0 8 5.5 13.5t13.5 5.5h34q10 0 15.5 -7t2.5 -18l-28 -159q-2 -6 -7.5 -10.5t-10.5 -4.5h-6z" />
    <glyph glyph-name="numbersign" unicode="#" horiz-adv-x="542" 
d="M131 195h-70q-8 0 -13.5 5.5t-5.5 13.5v7q0 19 19 19h77l24 171h-72q-8 0 -13.5 5.5t-5.5 13.5v7q0 8 5.5 13.5t13.5 5.5h78l32 228q1 6 6 11t12 5h7q8 0 14 -6.5t4 -15.5l-30 -222h151l31 228q1 6 6.5 11t12.5 5h6q9 0 15 -6.5t4 -15.5l-30 -222h70q8 0 13.5 -5.5
t5.5 -13.5v-7q0 -8 -4.5 -13.5t-12.5 -5.5h-78l-24 -171h71q8 0 13.5 -5.5t5.5 -13.5v-7q0 -8 -4.5 -13.5t-12.5 -5.5h-80l-26 -179q-2 -16 -19 -16h-6q-9 0 -14.5 6.5t-4.5 15.5l26 173h-153l-25 -179q-1 -7 -6.5 -11.5t-12.5 -4.5h-6q-10 0 -15.5 6.5t-3.5 15.5zM335 240
l23 171h-151l-25 -171h153z" />
    <glyph glyph-name="dollar" unicode="$" horiz-adv-x="524" 
d="M58 71q-6 5 -10.5 12.5t4.5 21.5q6 7 11.5 15t11.5 13t12.5 6t14.5 -6q2 -2 14 -12.5t30.5 -22.5t43.5 -23.5t54 -15.5v260q-40 16 -72.5 33t-56.5 37.5t-39 46.5t-20 60q-2 8 -2 17v19q0 24 10.5 53t33 55.5t59 45.5t87.5 23v32q0 8 5.5 13.5t13.5 5.5h7q8 0 13 -5.5
t5 -13.5v-32q32 -3 60 -11t48 -17q24 -11 42 -22q5 -2 10 -11t-4 -23q-13 -20 -21 -29.5t-26 1.5q-2 1 -12 7t-25 13t-33.5 14t-38.5 10l-1 -259q45 -20 82 -40t62.5 -44.5t39.5 -55.5t14 -72q0 -37 -16 -68.5t-43 -55.5t-63 -38t-76 -17v-104q0 -9 -7 -13.5t-15 -4.5
t-14.5 4.5t-6.5 13.5v104q-39 3 -71.5 14.5t-56.5 24.5t-39 25t-19 16zM244 642q-32 -3 -54 -15t-36 -28t-20 -33.5t-6 -32.5q0 -47 30.5 -77.5t85.5 -55.5v242zM287 58q25 2 46.5 11.5t37.5 24.5t25 33.5t9 39.5q0 42 -29.5 72.5t-88.5 59.5v-241z" />
    <glyph glyph-name="percent" unicode="%" horiz-adv-x="675" 
d="M170 441q-28 0 -52.5 10.5t-43 29t-29 43t-10.5 52.5t10.5 52.5t29 43t43 29t52.5 10.5t52.5 -10.5t43 -29t29 -43t10.5 -52.5t-10.5 -52.5t-29 -43t-43 -29t-52.5 -10.5zM471 690q6 10 17 10h16q11 0 16.5 -8.5t0.5 -18.5l-345 -663q-2 -3 -6 -6.5t-11 -3.5h-14
q-11 0 -16.5 8.5t-0.5 18.5zM170 498q31 0 53.5 22.5t22.5 55.5q0 31 -22.5 53.5t-53.5 22.5q-33 0 -55.5 -22.5t-22.5 -53.5q0 -33 22.5 -55.5t55.5 -22.5zM351 124q0 28 10.5 52.5t29 43t43 29t52.5 10.5t52.5 -10.5t43 -29t29 -43t10.5 -52.5t-10.5 -52.5t-29 -43
t-43 -29t-52.5 -10.5t-52.5 10.5t-43 29t-29 43t-10.5 52.5zM408 124q0 -33 22.5 -55.5t55.5 -22.5q31 0 53.5 22.5t22.5 55.5q0 31 -22.5 53.5t-53.5 22.5q-33 0 -55.5 -22.5t-22.5 -53.5z" />
    <glyph glyph-name="ampersand" unicode="&#x26;" horiz-adv-x="666" 
d="M82 174q0 40 14 72t35 56.5t45.5 42t44.5 29.5v2l-24 26q-29 31 -50.5 66t-19.5 80q0 28 10.5 57t32.5 52.5t55.5 38t78.5 14.5q40 0 71.5 -12.5t53.5 -33.5t33 -49t11 -59q0 -33 -15 -62.5t-37.5 -53.5t-48 -43.5t-47.5 -32.5l165 -165q40 82 40 178q0 17 6 20t17 3h24
q16 0 17.5 -8.5t1.5 -14.5q0 -58 -15.5 -116.5t-43.5 -108.5l96 -96q9 -10 12 -19.5t-13 -26.5l-12 -11q-9 -8 -20 -8.5t-22 11.5l-85 88q-41 -46 -95.5 -73t-122.5 -27q-47 0 -83 15t-60.5 40.5t-37 58.5t-12.5 70zM280 410q17 10 38.5 23.5t40 31.5t31.5 40t13 49
q0 18 -7 35.5t-20 31t-33 22t-45 8.5q-50 0 -77 -30.5t-27 -74.5q-2 -32 16.5 -59t47.5 -55zM152 173q0 -26 10 -48.5t27 -38.5t40 -25t49 -9q52 0 95.5 23t75.5 62l-185 194q-17 -11 -37 -25.5t-36.5 -34t-27.5 -44t-11 -54.5z" />
    <glyph glyph-name="quotesingle" unicode="'" horiz-adv-x="156" 
d="M68 501q-8 0 -13.5 5.5t-5.5 13.5v161q0 8 5.5 13.5t13.5 5.5h34q10 0 15.5 -7t2.5 -18l-28 -159q-2 -6 -7.5 -10.5t-10.5 -4.5h-6z" />
    <glyph glyph-name="parenleft" unicode="(" horiz-adv-x="344" 
d="M294 -78q-43 2 -85 22.5t-75.5 66t-54.5 120t-21 184.5t21 184.5t54.5 120t75.5 66t85 22.5q17 2 18 -10l2 -27q3 -15 -10 -17q-95 -19 -135.5 -105t-40.5 -234t40.5 -234t135.5 -105q13 -2 10 -17l-2 -27q-1 -12 -18 -10z" />
    <glyph glyph-name="parenright" unicode=")" horiz-adv-x="344" 
d="M40 -24q95 19 135.5 105t40.5 234t-40.5 234t-135.5 105q-13 2 -10 17l2 27q1 12 18 10q43 -2 85 -22.5t75.5 -66t54.5 -120t21 -184.5t-21 -184.5t-54.5 -120t-75.5 -66t-85 -22.5q-17 -2 -18 10l-2 27q-3 15 10 17z" />
    <glyph glyph-name="asterisk" unicode="*" horiz-adv-x="328" 
d="M157 415q-8 0 -13.5 5.5t-5.5 13.5l2 82l-67 -48q-6 -5 -14 -3t-12 9l-7 10q-5 7 -3 14.5t8 12.5l75 47l-77 47q-6 5 -7.5 12.5t2.5 13.5q2 3 4 5.5t4 5.5q4 6 11.5 8.5t13.5 -2.5l69 -49l-2 83q0 8 5.5 13t13.5 5h13q8 0 13.5 -5t5.5 -13l-2 -82l67 50q15 8 26 -6l7 -11
q4 -7 3 -14t-8 -12l-77 -49l78 -49q7 -5 8.5 -12.5t-2.5 -13.5l-7 -11q-5 -7 -12.5 -8.5t-14.5 2.5l-68 49l2 -81q0 -8 -5.5 -13.5t-13.5 -5.5h-13z" />
    <glyph glyph-name="plus" unicode="+" horiz-adv-x="501" 
d="M217 314h-157q-8 0 -13.5 5.5t-5.5 13.5v28q0 8 5.5 13.5t13.5 5.5h157v158q0 8 5.5 13t13.5 5h28q8 0 13.5 -5t5.5 -13v-158h158q8 0 13 -5.5t5 -13.5v-28q0 -8 -5 -13.5t-13 -5.5h-158v-157q0 -8 -5.5 -13t-13.5 -5h-28q-8 0 -13.5 5t-5.5 13v157z" />
    <glyph glyph-name="comma" unicode="," horiz-adv-x="233" 
d="M55 47q0 24 17 40.5t40 16.5q12 0 24 -4t21 -14t15 -27.5t6 -44.5q0 -31 -8.5 -59.5t-21.5 -52.5t-27.5 -43t-26.5 -30q-14 -12 -24 -2l-14 14q-4 4 -3 10.5t9 13.5q4 3 14 13t20.5 26t19 38t8.5 49q-4 -1 -12 -1q-23 0 -40 17t-17 40z" />
    <glyph glyph-name="hyphen" unicode="-" horiz-adv-x="413" 
d="M102 220q-8 0 -13.5 5t-5.5 13v19q0 19 19 19h209q19 0 19 -19v-19q0 -8 -5.5 -13t-13.5 -5h-209z" />
    <glyph glyph-name="period" unicode="." horiz-adv-x="226" 
d="M56 47q0 24 17 40.5t40 16.5q24 0 40.5 -16.5t16.5 -40.5q0 -23 -16.5 -40t-40.5 -17q-23 0 -40 17t-17 40z" />
    <glyph glyph-name="slash" unicode="/" horiz-adv-x="320" 
d="M236 687q4 13 18 13h22q11 0 16 -7t2 -18l-195 -662q-2 -5 -7.5 -9t-10.5 -4h-23q-10 0 -15.5 7t-2.5 18z" />
    <glyph glyph-name="zero" unicode="0" horiz-adv-x="632" 
d="M316 -10q-58 0 -103.5 24t-76.5 69t-47 110t-16 147t16 147t47 110t76.5 69t103.5 24t103.5 -24t76.5 -69t47 -110t16 -147t-16 -147t-47 -110t-76.5 -69t-103.5 -24zM316 55q83 0 127.5 73.5t44.5 211.5q0 137 -44.5 211t-127.5 74t-127.5 -74t-44.5 -211
q0 -138 44.5 -211.5t127.5 -73.5z" />
    <glyph glyph-name="one" unicode="1" horiz-adv-x="326" 
d="M149 556l-72 -56q-13 -10 -23 1l-19 21q-5 6 -3.5 12t5.5 10l140 136h27q8 0 13 -5.5t5 -13.5v-642q0 -8 -5 -13.5t-13 -5.5h-36q-8 0 -13.5 5.5t-5.5 13.5v537z" />
    <glyph glyph-name="two" unicode="2" horiz-adv-x="519" 
d="M42 49q62 66 122.5 132.5t122.5 132.5q101 110 101 181q0 21 -7.5 43.5t-24 41t-43 30.5t-65.5 12q-23 0 -44 -7t-39 -18t-32.5 -24.5t-26.5 -25.5q-6 -6 -13.5 -6t-13.5 6l-20 19q-5 5 -5.5 12.5t4.5 13.5q21 27 50 49q25 18 60 33.5t80 15.5q54 0 94.5 -16t67.5 -42.5
t40.5 -61.5t13.5 -73q0 -33 -10 -62t-27 -56.5t-39.5 -54t-48.5 -54.5q-48 -51 -96 -102.5t-96 -102.5h294q8 0 13.5 -5.5t5.5 -13.5v-27q0 -8 -5.5 -13.5t-13.5 -5.5h-380q-8 0 -13.5 5.5t-5.5 13.5v30z" />
    <glyph glyph-name="three" unicode="3" horiz-adv-x="532" 
d="M47 79q-5 5 -5 12t6 12l27 23q15 11 27 -5q3 -4 15 -15.5t31 -23.5t45 -21t58 -9q28 0 54.5 8.5t46 24.5t31.5 39t12 53q0 25 -10 49t-32 42t-55.5 29t-79.5 11h-56q-19 0 -19 22v24q0 12 4.5 17t16.5 5h55q40 0 70 9.5t49.5 26t29.5 38.5t10 47q0 30 -10.5 53.5
t-28.5 40t-41.5 25t-50.5 8.5q-26 0 -46.5 -6.5t-36.5 -16.5t-28 -21.5t-20 -20.5q-5 -5 -11.5 -7t-14.5 5l-24 19q-6 5 -5.5 13t5.5 13q22 25 50 44q24 17 56.5 30.5t74.5 13.5q45 0 83 -13t65.5 -36.5t42.5 -57.5t15 -76q0 -29 -10 -54.5t-25 -45.5t-33 -35t-35 -23v-3
q18 -8 39 -22t39 -34.5t30 -47t12 -58.5q0 -41 -15.5 -76.5t-44 -61.5t-69.5 -41t-93 -15q-46 0 -80 10.5t-58 24.5t-39.5 29.5t-23.5 24.5z" />
    <glyph glyph-name="four" unicode="4" horiz-adv-x="586" 
d="M35 154q-8 0 -13.5 5.5t-5.5 13.5v37l379 475q2 2 5 4t10 2h20q8 0 13.5 -5.5t5.5 -13.5l1 -457h81q8 0 13.5 -5t5.5 -13v-22q0 -8 -5.5 -13.5t-13.5 -5.5h-81v-137q0 -8 -5.5 -13.5t-13.5 -5.5h-34q-8 0 -13.5 5.5t-5.5 13.5v135h-343zM382 216v348l-282 -348h282z" />
    <glyph glyph-name="five" unicode="5" horiz-adv-x="533" 
d="M67 73q-10 11 -10.5 18t8.5 16q6 5 11.5 11t11.5 11q7 6 13 6.5t12 -7.5q4 -5 15 -17.5t29 -25t44 -22t60 -9.5q36 0 65 14.5t49.5 38t31.5 52.5t11 59q0 29 -9.5 55.5t-29 46t-49 31t-69.5 11.5h-152q-15 0 -23 11.5t-8 23.5v264q0 8 5.5 13.5t13.5 5.5h302
q8 0 13.5 -5.5t5.5 -13.5v-29q0 -8 -5.5 -13.5t-13.5 -5.5h-254v-184h116q114 0 172.5 -55.5t58.5 -154.5q0 -47 -17.5 -88.5t-48 -73t-73 -49.5t-93.5 -18q-42 0 -73.5 8.5t-55 21.5t-39.5 27.5t-25 25.5z" />
    <glyph glyph-name="six" unicode="6" horiz-adv-x="543" 
d="M53 275q0 66 17.5 121t45.5 99.5t63.5 78.5t72 59.5t71 42.5t59.5 27q15 6 22 -10l11 -24q4 -9 0 -16.5t-18 -12.5q-11 -4 -32 -14.5t-46.5 -27t-53.5 -38t-53 -48t-44 -57t-28 -64.5q20 12 44 22q20 8 48 15.5t60 7.5q42 0 81 -15t69 -43.5t47.5 -68.5t17.5 -90
q0 -47 -17.5 -89t-48 -73t-70.5 -49t-85 -18q-61 0 -105 22t-72.5 60.5t-42 90.5t-13.5 112zM286 56q31 0 58.5 12.5t48 34.5t32 51t11.5 61q0 33 -12 61.5t-32 49.5t-48 33t-59 12q-35 0 -64 -10.5t-50 -22.5q-25 -14 -44 -32q-6 -38 -1.5 -81.5t23 -81t52.5 -62.5t85 -25z
" />
    <glyph glyph-name="seven" unicode="7" horiz-adv-x="474" 
d="M91 30l279 583h-327q-8 0 -13.5 5.5t-5.5 13.5v29q0 8 5.5 13.5t13.5 5.5h402q8 0 13.5 -5.5t5.5 -13.5v-7l-292 -628q-3 -7 -11 -16.5t-22 -9.5h-29q-8 0 -13.5 5.5t-5.5 13.5v11z" />
    <glyph glyph-name="eight" unicode="8" horiz-adv-x="573" 
d="M62 183q0 32 12.5 59.5t30.5 49t39 36t39 22.5v3q-17 8 -35 22t-33 34t-25 44.5t-10 53.5q0 41 15.5 75t43 58t65 37t82.5 13t83.5 -13t66 -37t43 -58t15.5 -75q0 -29 -10 -53.5t-25 -44.5t-33 -34t-35 -22v-3q18 -8 39 -22.5t39 -36t30.5 -49t12.5 -59.5
q0 -41 -15.5 -76t-45 -61t-71.5 -41t-95 -15q-52 0 -93 15t-70 41t-44.5 61t-15.5 76zM287 385q69 7 101 39.5t32 79.5q0 57 -38.5 91.5t-98.5 34.5q-27 0 -50.5 -9t-41 -25.5t-27.5 -40t-10 -51.5q0 -47 31.5 -79.5t101.5 -39.5zM137 176q0 -29 12 -52t32.5 -39.5t47 -25.5
t56.5 -9q32 0 60 8.5t48.5 25t32 39.5t11.5 53q0 23 -10 45.5t-29.5 41.5t-47 31.5t-63.5 16.5q-36 -4 -64 -16.5t-47 -31.5t-29 -41.5t-10 -45.5z" />
    <glyph glyph-name="nine" unicode="9" horiz-adv-x="543" 
d="M128 17q-4 9 0 16.5t18 12.5q11 4 32 14.5t46.5 27t53.5 38t53 48t44 57t28 64.5q-20 -13 -44 -23q-20 -8 -48 -15t-60 -7q-42 0 -81 15t-69 43.5t-47.5 68.5t-17.5 90q0 47 17.5 89t48 73t70.5 49t85 18q61 0 105 -22t72.5 -60.5t42 -90.5t13.5 -112q0 -67 -17.5 -121.5
t-45.5 -99t-63.5 -78.5t-72 -59.5t-71 -42.5t-59.5 -27q-15 -6 -22 10zM258 315q35 0 64 10t50 22q25 14 44 33q6 37 1.5 81t-23 81.5t-52.5 62.5t-85 25q-32 0 -59 -13t-47.5 -34.5t-32 -50.5t-11.5 -61q0 -33 12 -61.5t32 -49.5t47.5 -33t59.5 -12z" />
    <glyph glyph-name="colon" unicode=":" horiz-adv-x="256" 
d="M128 296q-23 0 -40 17t-17 40q0 24 17 40.5t40 16.5q24 0 40.5 -16.5t16.5 -40.5q0 -23 -16.5 -40t-40.5 -17zM71 47q0 24 17 40.5t40 16.5q24 0 40.5 -16.5t16.5 -40.5q0 -23 -16.5 -40t-40.5 -17q-23 0 -40 17t-17 40z" />
    <glyph glyph-name="semicolon" unicode=";" horiz-adv-x="259" 
d="M127 296q-23 0 -40 17t-17 40q0 24 17 40.5t40 16.5q24 0 40.5 -16.5t16.5 -40.5q0 -23 -16.5 -40t-40.5 -17zM70 47q0 24 17 40.5t40 16.5q12 0 24 -4t21 -14t15 -27.5t6 -44.5q0 -31 -8.5 -59.5t-21.5 -52.5t-27.5 -43t-26.5 -30q-14 -12 -24 -2l-14 14q-4 4 -3 10.5
t9 13.5q4 3 14 13t20.5 26t19 38t8.5 49q-4 -1 -12 -1q-23 0 -40 17t-17 40z" />
    <glyph glyph-name="less" unicode="&#x3c;" horiz-adv-x="439" 
d="M35 210q-4 2 -7 7t-3 10v5q0 5 3 10t7 7l340 212q10 6 19 1t9 -17v-36q0 -5 -2.5 -10t-8.5 -9l-261 -160l261 -154q8 -5 9.5 -9.5t1.5 -9.5v-36q0 -12 -9 -17t-19 1z" />
    <glyph glyph-name="equal" unicode="=" horiz-adv-x="510" 
d="M105 351q-8 0 -13.5 5.5t-5.5 13.5v30q0 8 5.5 13.5t13.5 5.5h299q8 0 13.5 -5.5t5.5 -13.5v-30q0 -8 -5.5 -13.5t-13.5 -5.5h-299zM105 140q-8 0 -13.5 5.5t-5.5 13.5v31q0 8 5.5 13.5t13.5 5.5h299q8 0 13.5 -5.5t5.5 -13.5v-31q0 -8 -5.5 -13.5t-13.5 -5.5h-299z" />
    <glyph glyph-name="greater" unicode="&#x3e;" horiz-adv-x="439" 
d="M36 21v36q0 5 2.5 10.5t8.5 8.5l261 154l-261 160q-7 5 -9 9.5t-2 9.5v36q0 12 9 17t19 -1l340 -212q4 -2 7 -7t3 -10v-5q0 -5 -3 -10t-7 -7l-340 -205q-10 -6 -19 -1t-9 17z" />
    <glyph glyph-name="question" unicode="?" horiz-adv-x="461" 
d="M201 272q-8 0 -13.5 5.5t-5.5 13.5v42q0 31 11 52t28 37t36 29t36 27.5t28 34t11 47.5q0 35 -25 61.5t-74 26.5q-30 0 -52.5 -7.5t-39 -18.5t-28 -22.5t-18.5 -19.5q-13 -13 -26 -1l-19 17q-6 5 -5.5 12.5t5.5 13.5q18 25 44 44q23 17 57 30.5t82 13.5q39 0 71 -11
t55 -31t35.5 -48.5t12.5 -62.5q0 -33 -11.5 -56.5t-29.5 -41.5t-38 -32.5t-38 -28.5t-29.5 -29t-11.5 -36v-41q0 -11 -6.5 -15.5t-14.5 -4.5h-27zM156 47q0 24 17 40.5t40 16.5q24 0 40.5 -16.5t16.5 -40.5q0 -23 -16.5 -40t-40.5 -17q-23 0 -40 17t-17 40z" />
    <glyph glyph-name="at" unicode="@" horiz-adv-x="981" 
d="M43 223q0 106 32.5 195.5t92.5 154.5t145 101t190 36q100 0 178.5 -32t132.5 -88.5t82.5 -134t28.5 -167.5q0 -50 -10.5 -102.5t-35 -96t-64.5 -71.5t-99 -28q-52 0 -79.5 23t-35.5 55h-8q-16 -32 -48 -55t-78 -23q-38 0 -70 15t-55.5 42.5t-36.5 66.5t-13 87
q0 50 13.5 89t37 65.5t56 40.5t71.5 14q30 0 51.5 -8.5t35.5 -18.5q17 -11 28 -26q5 21 9 32t25 11h10q8 0 13.5 -5.5t5.5 -13.5v-213q0 -36 5 -60t14 -37.5t22.5 -19t30.5 -5.5q29 0 55 16t45.5 47t31 76t11.5 103q0 77 -23 143.5t-68.5 116t-113 78t-157.5 28.5t-163 -30
t-124.5 -85.5t-79.5 -135.5t-28 -180q0 -71 19.5 -131.5t54.5 -110t83.5 -86.5t106.5 -62q11 -5 12.5 -9.5t-3.5 -15.5l-11 -27q-6 -14 -20 -8q-67 28 -123 71.5t-96.5 100.5t-63 127t-22.5 151zM356 200q0 -35 9.5 -62t25.5 -45t37.5 -27.5t44.5 -9.5q25 0 43.5 8
t31.5 21.5t21 30.5t12 34v142q-11 16 -26 28q-14 11 -33.5 19.5t-47.5 8.5q-51 0 -84.5 -38t-33.5 -110z" />
    <glyph glyph-name="A" unicode="A" horiz-adv-x="663" 
d="M23 0q-11 0 -16.5 8t-0.5 18l304 673q5 11 17 11h10q11 0 17 -11l302 -673q5 -10 -0.5 -18t-16.5 -8h-40q-7 0 -11 3.5t-6 7.5l-74 165h-355l-73 -165q-2 -4 -6 -7.5t-11 -3.5h-40zM481 238q-37 82 -73 164t-73 164h-8l-146 -328h300z" />
    <glyph glyph-name="B" unicode="B" horiz-adv-x="625" 
d="M102 681q0 8 5.5 13.5t13.5 5.5h219q46 0 83.5 -14t64.5 -38.5t42 -58.5t15 -73q0 -29 -8.5 -54t-22.5 -45t-31.5 -35.5t-35.5 -25.5q20 -8 41 -21.5t38.5 -33.5t29 -47t11.5 -61q0 -42 -16 -77.5t-44.5 -61t-69 -40t-88.5 -14.5h-228q-8 0 -13.5 5.5t-5.5 13.5v662z
M340 386q58 0 89 36t31 89q0 54 -31 87t-89 33h-163v-245h163zM357 67q27 0 50.5 9.5t40 27t26 40.5t9.5 50t-11.5 49.5t-31 39t-45.5 25.5t-55 9h-165v-250h182z" />
    <glyph glyph-name="C" unicode="C" horiz-adv-x="707" 
d="M51 349q0 75 28.5 141t77 114.5t114.5 77t141 28.5q76 0 133.5 -24.5t108.5 -68.5q6 -6 6.5 -14t-5.5 -14l-27 -27q-11 -14 -26 1q-39 34 -89.5 54.5t-101.5 20.5q-59 0 -110 -23t-88.5 -62.5t-59 -92t-21.5 -110.5t21.5 -110t59 -91.5t88.5 -62.5t110 -23q33 0 59.5 6
t49 16.5t42.5 24t40 28.5q8 6 13.5 6t10.5 -3l30 -27q6 -5 5 -13.5t-6 -13.5q-51 -50 -113.5 -73.5t-129.5 -23.5q-75 0 -141 28t-114.5 76.5t-77 114t-28.5 140.5z" />
    <glyph glyph-name="D" unicode="D" horiz-adv-x="747" 
d="M102 681q0 8 5 13.5t13 5.5h224q72 0 136 -27.5t112 -75t75.5 -111t27.5 -135.5q0 -73 -27.5 -137t-75.5 -111.5t-112 -75t-136 -27.5h-224q-8 0 -13 5.5t-5 13.5v662zM328 69q61 0 113 21t90 58.5t59 89t21 113.5q0 61 -21 113t-59 89t-90 58t-113 21h-150v-563h150z
" />
    <glyph glyph-name="E" unicode="E" horiz-adv-x="592" 
d="M102 681q0 8 5.5 13.5t13.5 5.5h394q8 0 13.5 -5.5t5.5 -13.5v-29q0 -8 -5.5 -13.5t-13.5 -5.5h-336v-244h287q8 0 13.5 -5.5t5.5 -13.5v-29q0 -8 -5.5 -13.5t-13.5 -5.5h-287v-255h336q8 0 13.5 -5.5t5.5 -13.5v-29q0 -8 -5.5 -13.5t-13.5 -5.5h-394q-8 0 -13.5 5.5
t-5.5 13.5v662z" />
    <glyph glyph-name="F" unicode="F" horiz-adv-x="569" 
d="M102 681q0 8 5.5 13.5t13.5 5.5h394q8 0 13.5 -5.5t5.5 -13.5v-29q0 -8 -5.5 -13.5t-13.5 -5.5h-336v-274h287q8 0 13.5 -5.5t5.5 -13.5v-29q0 -8 -5.5 -13.5t-13.5 -5.5h-287v-273q0 -8 -5.5 -13.5t-13.5 -5.5h-39q-8 0 -13.5 5.5t-5.5 13.5v662z" />
    <glyph glyph-name="G" unicode="G" horiz-adv-x="732" 
d="M51 349q0 75 28.5 141t77 114.5t114.5 77t141 28.5q76 0 133.5 -24.5t108.5 -68.5q6 -6 6.5 -14t-5.5 -14q-7 -7 -14.5 -14t-13.5 -14q-7 -8 -12.5 -7.5t-13.5 8.5q-38 34 -88.5 56t-101.5 22q-59 0 -110 -23t-88.5 -62.5t-58.5 -91.5t-21 -110t21 -110.5t58.5 -92
t88.5 -63t110 -23.5q42 0 75 6.5t56 14.5q27 9 49 21v140h-115q-8 0 -13.5 5t-5.5 13v37q0 19 19 19h173q8 0 13 -5.5t5 -13.5v-229q0 -10 -8 -16q-30 -19 -69 -33q-33 -13 -78.5 -23t-99.5 -10q-75 0 -141 28t-114.5 76.5t-77 114t-28.5 140.5z" />
    <glyph glyph-name="H" unicode="H" horiz-adv-x="764" 
d="M102 681q0 8 5.5 13.5t13.5 5.5h39q8 0 13.5 -5.5t5.5 -13.5v-292h406v292q0 8 5.5 13.5t13.5 5.5h39q8 0 13.5 -5.5t5.5 -13.5v-662q0 -8 -5.5 -13.5t-13.5 -5.5h-39q-8 0 -13.5 5.5t-5.5 13.5v303h-406v-303q0 -8 -5.5 -13.5t-13.5 -5.5h-39q-8 0 -13.5 5.5t-5.5 13.5
v662z" />
    <glyph glyph-name="I" unicode="I" horiz-adv-x="282" 
d="M102 681q0 8 5.5 13.5t13.5 5.5h40q8 0 13.5 -5.5t5.5 -13.5v-662q0 -8 -5.5 -13.5t-13.5 -5.5h-40q-8 0 -13.5 5.5t-5.5 13.5v662z" />
    <glyph glyph-name="J" unicode="J" horiz-adv-x="405" 
d="M-20 64q-8 13 2 25l21 24q12 11 19 8t15 -11q6 -7 16 -16t22.5 -17.5t27 -14t31.5 -5.5q22 0 44 8.5t39.5 26.5t28 46.5t10.5 68.5v474q0 8 5.5 13.5t13.5 5.5h39q8 0 13.5 -5.5t5.5 -13.5v-472q0 -52 -15 -93t-41.5 -69t-63.5 -42.5t-81 -14.5q-33 0 -58.5 8.5t-44 20.5
t-31 24.5t-18.5 20.5z" />
    <glyph glyph-name="K" unicode="K" horiz-adv-x="618" 
d="M102 676q0 10 6.5 17t17.5 7h29q10 0 17 -7t7 -17v-283l312 297q3 4 8.5 7t10.5 3h49q14 0 19 -12t-7 -23l-316 -295l331 -339q3 -3 3.5 -8t-1 -10t-6.5 -9t-13 -4h-51q-5 0 -10.5 2.5t-7.5 4.5l-321 335v-318q0 -10 -7 -17t-17 -7h-29q-11 0 -17.5 7t-6.5 17v652z" />
    <glyph glyph-name="L" unicode="L" horiz-adv-x="491" 
d="M102 681q0 8 5.5 13.5t13.5 5.5h39q8 0 13.5 -5.5t5.5 -13.5v-614h288q8 0 13.5 -5.5t5.5 -13.5v-29q0 -8 -5.5 -13.5t-13.5 -5.5h-346q-8 0 -13.5 5.5t-5.5 13.5v662z" />
    <glyph glyph-name="M" unicode="M" horiz-adv-x="862" 
d="M181 696q2 6 7 10t11 4h16q13 0 17 -11l198 -551h5l195 551q4 11 17 11h16q14 0 18 -14l129 -672q2 -11 -2.5 -17.5t-15.5 -6.5h-40q-6 0 -11 4.5t-7 9.5l-89 515h-4l-184 -528q-2 -5 -7 -8t-10 -3h-18q-5 0 -10 3t-7 8l-186 528h-4l-87 -515q-1 -5 -6.5 -9.5t-11.5 -4.5
h-40q-11 0 -15.5 6.5t-2.5 17.5z" />
    <glyph glyph-name="N" unicode="N" horiz-adv-x="774" 
d="M102 692q0 8 5.5 13t13.5 5h25l451 -562h2v533q0 8 5.5 13.5t13.5 5.5h35q8 0 13.5 -5.5t5.5 -13.5v-673q0 -8 -5.5 -13t-13.5 -5h-18l-459 573h-1v-544q0 -8 -5.5 -13.5t-13.5 -5.5h-35q-8 0 -13.5 5.5t-5.5 13.5v673z" />
    <glyph glyph-name="O" unicode="O" horiz-adv-x="821" 
d="M51 349q0 75 28 141t76.5 114.5t114 77t140.5 28.5t140.5 -28.5t114.5 -77t77 -114.5t28 -141t-28 -140.5t-77 -114t-114.5 -76.5t-140.5 -28t-140.5 28t-114 76.5t-76.5 114t-28 140.5zM121 349q0 -60 23 -112.5t62 -91.5t91.5 -62t112.5 -23t112.5 23t92 62t62.5 91.5
t23 112.5t-23 112.5t-62.5 92.5t-92 63t-112.5 23t-112.5 -23t-91.5 -63t-62 -92.5t-23 -112.5z" />
    <glyph glyph-name="P" unicode="P" horiz-adv-x="596" 
d="M102 681q0 8 5.5 13.5t13.5 5.5h221q46 0 87 -17.5t71.5 -47.5t48 -70.5t17.5 -85.5q0 -47 -17.5 -87.5t-48 -71.5t-71 -48.5t-86.5 -17.5h-165v-235q0 -8 -5.5 -13.5t-13.5 -5.5h-38q-8 0 -13.5 5.5t-5.5 13.5v662zM337 328q31 0 58.5 12t48.5 32.5t33 48.5t12 60
q0 30 -12 56.5t-33 45.5t-48.5 30t-58.5 11h-159v-296h159z" />
    <glyph glyph-name="Q" unicode="Q" horiz-adv-x="822" 
d="M51 349q0 75 28 141t76.5 114.5t114 77t140.5 28.5t140.5 -28.5t114.5 -77t77 -114.5t28 -141q0 -56 -15.5 -106t-43.5 -93t-67.5 -76t-86.5 -54l117 -188q7 -11 1.5 -20.5t-17.5 -9.5h-50q-3 0 -8 2.5t-8 7.5l-109 184q-17 -3 -36.5 -4.5t-36.5 -1.5q-75 0 -140.5 28
t-114 76.5t-76.5 114t-28 140.5zM121 349q0 -60 23 -112.5t62 -91.5t91.5 -62t112.5 -23t112.5 23t92 62t62.5 91.5t23 112.5t-23 112.5t-62.5 92.5t-92 63t-112.5 23t-112.5 -23t-91.5 -63t-62 -92.5t-23 -112.5z" />
    <glyph glyph-name="R" unicode="R" horiz-adv-x="661" 
d="M102 681q0 8 5.5 13.5t13.5 5.5h259q45 0 84.5 -16.5t69.5 -45.5t47 -67.5t17 -83.5q0 -35 -11 -66t-30.5 -57.5t-46.5 -47t-60 -33.5l137 -254q5 -10 0.5 -19.5t-17.5 -9.5h-51q-7 0 -10.5 3t-5.5 6l-133 265h-191v-255q0 -8 -5.5 -13.5t-13.5 -5.5h-39q-8 0 -13.5 5.5
t-5.5 13.5v662zM375 340q29 0 55 11.5t46 31t31.5 46t11.5 57.5q0 28 -11.5 54t-31.5 45t-46 30.5t-55 11.5h-194v-287h194z" />
    <glyph glyph-name="S" unicode="S" horiz-adv-x="533" 
d="M63 71q-6 5 -10.5 12.5t4.5 21.5q4 5 7.5 9.5t7.5 9.5q8 10 16 14t19 -5q3 -2 17 -14.5t36.5 -26t52.5 -24.5t63 -11q30 0 55 9t42.5 24t27 35t9.5 42q0 52 -44 87t-131 71q-41 18 -74 36.5t-55.5 42t-34.5 54.5t-12 74q0 25 11 56t36 58t65.5 45.5t100.5 18.5
q37 0 68 -8t54 -18q26 -11 49 -25q5 -2 10 -11t-4 -23q-3 -5 -6 -9.5t-6 -9.5q-7 -11 -15 -13.5t-20 4.5q-3 1 -15 8.5t-30 16t-40.5 15t-45.5 6.5q-40 0 -66.5 -11.5t-42.5 -28t-22.5 -35.5t-6.5 -35q0 -50 36 -82.5t99 -58.5q51 -21 92 -42t70 -46.5t44.5 -58t15.5 -75.5
q0 -39 -17.5 -72t-47 -57t-68.5 -37.5t-83 -13.5t-81 11t-64 25t-44 27t-22 18z" />
    <glyph glyph-name="T" unicode="T" horiz-adv-x="478" 
d="M201 633h-174q-8 0 -13.5 5.5t-5.5 13.5v29q0 8 5.5 13.5t13.5 5.5h424q8 0 13.5 -5.5t5.5 -13.5v-29q0 -8 -5.5 -13.5t-13.5 -5.5h-174v-614q0 -8 -5.5 -13.5t-13.5 -5.5h-38q-8 0 -13.5 5.5t-5.5 13.5v614z" />
    <glyph glyph-name="U" unicode="U" horiz-adv-x="716" 
d="M93 681q0 8 5.5 13.5t13.5 5.5h38q8 0 13.5 -5.5t5.5 -13.5v-417q0 -43 13 -80t37 -64.5t59 -43t79 -15.5t79.5 15.5t60 42.5t37.5 63.5t13 79.5v419q0 8 5.5 13.5t13.5 5.5h38q8 0 13.5 -5.5t5.5 -13.5v-423q0 -57 -19.5 -106t-54.5 -85t-84 -56.5t-108 -20.5
t-107.5 20.5t-83.5 56.5t-54 85t-19 106v423z" />
    <glyph glyph-name="V" unicode="V" horiz-adv-x="664" 
d="M7 674q-5 10 0.5 18t16.5 8h40q7 0 11 -3.5t6 -7.5l249 -560h4l249 560q2 4 6.5 7.5t10.5 3.5h40q11 0 16.5 -8t0.5 -18l-304 -673q-6 -11 -17 -11h-10q-12 0 -17 11z" />
    <glyph glyph-name="W" unicode="W" horiz-adv-x="902" 
d="M37 676q-3 11 2 17.5t16 6.5h42q6 0 11 -4.5t7 -9.5l139 -518h4l167 531q4 11 17 11h18q13 0 17 -11l170 -531h4l136 518q2 5 7 9.5t11 4.5h42q11 0 16 -6.5t2 -17.5l-189 -672q-4 -14 -18 -14h-16q-12 0 -17 11l-173 541h-5l-170 -541q-6 -11 -17 -11h-16q-6 0 -11 4
t-7 10z" />
    <glyph glyph-name="X" unicode="X" horiz-adv-x="583" 
d="M243 359l-195 313q-6 10 -1 19t18 9h54q12 0 17 -9l154 -265h1l156 265q5 9 17 9h54q13 0 18 -9t-1 -19l-195 -313l202 -331q6 -11 1 -19.5t-18 -8.5h-46q-6 0 -10.5 3t-6.5 6l-171 283h-1l-169 -283q-5 -9 -17 -9h-46q-14 0 -19 9t1 19z" />
    <glyph glyph-name="Y" unicode="Y" horiz-adv-x="565" 
d="M243 337l-241 334q-6 10 -1 19.5t17 9.5h47q5 0 9.5 -3t6.5 -6l202 -279l202 279q2 3 6.5 6t9.5 3h47q12 0 17 -9.5t-1 -19.5l-244 -333v-319q0 -8 -5.5 -13.5t-13.5 -5.5h-39q-8 0 -13.5 5.5t-5.5 13.5v318z" />
    <glyph glyph-name="Z" unicode="Z" horiz-adv-x="534" 
d="M30 37l363 590v3h-315q-8 0 -13.5 5.5t-5.5 13.5v32q0 8 5.5 13.5t13.5 5.5h405q8 0 13.5 -5.5t5.5 -13.5v-13l-369 -597v-1h330q8 0 13.5 -5.5t5.5 -13.5v-32q0 -8 -5.5 -13.5t-13.5 -5.5h-414q-8 0 -13.5 5.5t-5.5 13.5v18z" />
    <glyph glyph-name="bracketleft" unicode="[" horiz-adv-x="327" 
d="M283 -237q8 0 13.5 -5t5.5 -13v-26q0 -8 -5.5 -13.5t-13.5 -5.5h-186q-8 0 -13.5 5.5t-5.5 13.5v962q0 8 5.5 13.5t13.5 5.5h186q8 0 13.5 -5.5t5.5 -13.5v-25q0 -8 -5.5 -13.5t-13.5 -5.5h-137v-874h137z" />
    <glyph glyph-name="backslash" unicode="\" horiz-adv-x="330" 
d="M26 675q-3 11 2 18t16 7h32q14 0 18 -13l196 -662q3 -11 -2.5 -18t-15.5 -7h-33q-5 0 -10.5 4t-7.5 9z" />
    <glyph glyph-name="bracketright" unicode="]" horiz-adv-x="327" 
d="M181 -237v874h-137q-8 0 -13.5 5.5t-5.5 13.5v25q0 8 5.5 13.5t13.5 5.5h186q8 0 13.5 -5.5t5.5 -13.5v-962q0 -8 -5.5 -13.5t-13.5 -5.5h-186q-8 0 -13.5 5.5t-5.5 13.5v26q0 8 5.5 13t13.5 5h137z" />
    <glyph glyph-name="asciicircum" unicode="^" horiz-adv-x="524" 
d="M60 398q-12 0 -17 9t1 19l201 278q2 4 7 7t10 3h5q5 0 10 -3t7 -7l196 -278q6 -10 1 -19t-17 -9h-33q-8 0 -12.5 3.5t-6.5 7.5l-149 211l-151 -211q-8 -11 -19 -11h-33z" />
    <glyph glyph-name="underscore" unicode="_" horiz-adv-x="387" 
d="M25 -29q0 19 19 19h299q19 0 19 -19v-16q0 -8 -5.5 -13t-13.5 -5h-299q-8 0 -13.5 5t-5.5 13v16z" />
    <glyph glyph-name="grave" unicode="`" horiz-adv-x="302" 
d="M76 626q-6 2 -7.5 8.5t1.5 12.5l18 36q4 7 12.5 6.5t13.5 -3.5l150 -84q5 -2 7 -7.5t-1 -11.5l-10 -22q-3 -6 -7.5 -6.5t-15.5 4.5z" />
    <glyph glyph-name="a" unicode="a" horiz-adv-x="420" 
d="M42 121q0 57 41 95t119 38q16 0 31.5 -2.5t27.5 -4.5q14 -3 26 -6q0 28 -2 48t-9 33.5t-20 20t-34 6.5q-42 0 -74 -8.5t-46 -13.5q-14 -6 -19 10l-8 25q-3 9 0.5 14t10.5 8q2 1 13.5 5.5t30 9t43 8t52.5 3.5q38 0 62.5 -10t39 -30.5t20 -52.5t5.5 -76v-222
q0 -8 -5.5 -13.5t-13.5 -5.5h-19q-8 0 -11.5 4t-5.5 11l-8 27q-16 -16 -46.5 -34t-77.5 -18q-26 0 -48.5 9t-39 26.5t-26 41.5t-9.5 54zM106 121q0 -30 19 -50.5t51 -20.5q38 0 67.5 18.5t42.5 37.5v79q-9 5 -30 10.5t-54 5.5q-42 0 -69 -20.5t-27 -59.5z" />
    <glyph glyph-name="b" unicode="b" 
d="M72 681q0 8 5.5 13.5t13.5 5.5h31q8 0 13.5 -5.5t5.5 -13.5v-297q12 7 29 13q14 5 33.5 9t44.5 4q45 0 80.5 -16t60.5 -44.5t38 -66.5t13 -82q0 -43 -14 -81.5t-38.5 -67t-58 -45.5t-71.5 -17q-29 0 -51.5 8t-38.5 18q-18 11 -33 27l-6 -27q-4 -16 -17 -16h-21
q-8 0 -13.5 5.5t-5.5 13.5v662zM142 119q11 -19 27 -33q14 -13 34.5 -23t47.5 -10t49 12t37.5 32t24 47t8.5 56q0 30 -8 56t-24.5 45.5t-41 30.5t-57.5 11q-21 0 -38.5 -3.5t-30.5 -8.5q-15 -5 -28 -12v-200z" />
    <glyph glyph-name="c" unicode="c" horiz-adv-x="441" 
d="M41 199q0 44 17 82.5t45.5 67t65.5 45t78 16.5q88 0 143 -70q5 -7 4 -15t-8 -13l-19 -16q-11 -11 -16.5 -6.5t-12.5 10.5q-15 17 -39 29.5t-53 12.5q-28 0 -52.5 -11t-42.5 -30t-28 -45t-10 -56t10 -56.5t28 -46t42 -30.5t52 -11q22 0 38.5 5t28.5 12.5t21 17t18 17.5
q9 9 15.5 8.5t14.5 -6.5l11 -8q17 -12 7 -28q-23 -36 -62.5 -60t-90.5 -24q-42 0 -79 16t-65 43.5t-44.5 66t-16.5 83.5z" />
    <glyph glyph-name="d" unicode="d" 
d="M42 201q0 44 13 82t38 66.5t60.5 44.5t80.5 16q25 0 44.5 -4t33.5 -9q16 -6 29 -13v297q0 8 5.5 13.5t13.5 5.5h31q8 0 13.5 -5.5t5.5 -13.5v-662q0 -8 -5.5 -13.5t-13.5 -5.5h-21q-13 0 -17 16l-6 27q-15 -16 -33 -27q-16 -10 -39 -18t-51 -8q-38 0 -71.5 17t-58 45.5
t-38.5 67t-14 81.5zM112 200q0 -29 8.5 -56t24 -47t37.5 -32t49 -12t47 10t34 23q16 14 28 33v200q-13 7 -28 12q-13 5 -31 8.5t-38 3.5q-33 0 -57.5 -11t-41 -30.5t-24.5 -45.5t-8 -56z" />
    <glyph glyph-name="e" unicode="e" horiz-adv-x="457" 
d="M42 200q0 42 13.5 80.5t39 67t62 45.5t81.5 17q39 0 72.5 -14t57.5 -38.5t37.5 -58t13.5 -72.5q0 -5 -0.5 -13.5t-1.5 -13.5q-2 -17 -18 -17h-288q1 -25 12.5 -48.5t29.5 -41.5t41.5 -29t50.5 -11q32 0 57 9.5t42 20.5q11 6 16.5 8t11.5 -6q5 -6 8.5 -11.5t8.5 -11.5
q5 -7 6 -12.5t-10 -13.5q-18 -14 -56.5 -30t-90.5 -16q-45 0 -81.5 16.5t-62 45t-39 67t-13.5 81.5zM350 239q-1 22 -10 42t-24 35t-35 24t-43 9q-25 0 -47 -8.5t-38.5 -23.5t-27 -35t-13.5 -43h238z" />
    <glyph glyph-name="f" unicode="f" horiz-adv-x="320" 
d="M103 340h-61q-8 0 -13.5 5.5t-5.5 13.5v22q0 19 19 19h61v140q0 43 12 75t32.5 53t48.5 31.5t60 10.5q42 0 69 -14t41 -27q5 -5 6 -11.5t-2 -11.5l-16 -26q-5 -8 -11.5 -7.5t-14.5 6.5q-10 8 -30 18.5t-43 10.5q-35 0 -59 -25t-24 -83v-140h116q19 0 19 -19v-22
q0 -8 -5.5 -13.5t-13.5 -5.5h-116v-321q0 -8 -5.5 -13.5t-13.5 -5.5h-31q-8 0 -13.5 5.5t-5.5 13.5v321z" />
    <glyph glyph-name="g" unicode="g" horiz-adv-x="459" 
d="M31 19q0 29 10 50.5t23 35.5q15 17 34 29q-9 12 -16 28q-6 14 -11 31.5t-5 40.5q0 35 12 67t33.5 56t53 38.5t70.5 14.5h169q19 0 19 -19v-17q0 -5 -3 -10.5t-8 -6.5l-54 -11q12 -10 22 -26q8 -14 15.5 -35.5t7.5 -50.5q0 -34 -12 -65t-33.5 -54t-52.5 -37t-70 -14
q-24 0 -42 3.5t-30 8.5q-14 5 -23 13q-12 -6 -22 -15q-8 -8 -15 -19t-7 -26q0 -19 13.5 -34t41.5 -15h144q31 0 58.5 -8t48 -23.5t32 -39.5t11.5 -57q0 -31 -15.5 -60.5t-43 -52t-65.5 -36t-83 -13.5q-50 0 -86.5 12.5t-60 32t-34.5 44t-11 49.5q0 22 7.5 38.5t17.5 28
t19.5 18t13.5 8.5v3q-10 3 -22.5 9.5t-24 17.5t-19 28t-7.5 40zM236 124q45 0 72.5 31t27.5 81t-27.5 81t-72.5 31q-46 0 -75.5 -31t-29.5 -81t29.5 -81t75.5 -31zM117 -162q0 -36 34.5 -59.5t85.5 -23.5q25 0 49 6.5t43 19t30.5 30t11.5 39.5q0 5 -2 15.5t-9.5 21.5
t-23 19.5t-41.5 8.5h-111q-19 -5 -34 -16q-13 -9 -23 -24t-10 -37z" />
    <glyph glyph-name="h" unicode="h" horiz-adv-x="496" 
d="M72 681q0 8 5.5 13.5t13.5 5.5h31q8 0 13.5 -5.5t5.5 -13.5v-324q17 15 37 26q17 10 41.5 18.5t55.5 8.5q75 0 115 -46t40 -134v-211q0 -8 -5.5 -13.5t-13.5 -5.5h-32q-8 0 -13.5 5.5t-5.5 13.5v211q0 57 -24 85t-66 28q-29 0 -52.5 -8.5t-40.5 -19.5q-20 -12 -36 -28
v-268q0 -8 -5.5 -13.5t-13.5 -5.5h-31q-8 0 -13.5 5.5t-5.5 13.5v662z" />
    <glyph glyph-name="i" unicode="i" horiz-adv-x="211" 
d="M104 585q-20 0 -33.5 13.5t-13.5 33.5t13.5 34t33.5 14t34 -14t14 -34t-14 -33.5t-34 -13.5zM71 381q0 8 5.5 13.5t13.5 5.5h31q8 0 13.5 -5.5t5.5 -13.5v-362q0 -8 -5.5 -13.5t-13.5 -5.5h-31q-8 0 -13.5 5.5t-5.5 13.5v362z" />
    <glyph glyph-name="j" unicode="j" horiz-adv-x="213" 
d="M106 585q-20 0 -33.5 13.5t-13.5 33.5t13.5 34t33.5 14t34 -14t14 -34t-14 -33.5t-34 -13.5zM72 381q0 8 5.5 13.5t13.5 5.5h31q8 0 13.5 -5.5t5.5 -13.5v-521q0 -44 -12 -76t-32.5 -53t-48.5 -31t-60 -10q-42 0 -69 14t-41 27q-5 5 -6 11.5t2 11.5l16 26q5 8 11.5 7.5
t14.5 -6.5q10 -8 32 -18.5t41 -10.5q35 0 59 25t24 83v521z" />
    <glyph glyph-name="k" unicode="k" horiz-adv-x="448" 
d="M72 681q0 8 5.5 13.5t13.5 5.5h31q8 0 13.5 -5.5t5.5 -13.5v-433l170 140q14 12 24 12h54q13 0 13.5 -10t-4.5 -15l-190 -152l221 -198q6 -5 4.5 -15t-14.5 -10h-55q-7 0 -12 3t-8 5l-203 193v-182q0 -8 -5.5 -13.5t-13.5 -5.5h-31q-8 0 -13.5 5.5t-5.5 13.5v662z" />
    <glyph glyph-name="l" unicode="l" horiz-adv-x="213" 
d="M72 681q0 8 5.5 13.5t13.5 5.5h31q8 0 13.5 -5.5t5.5 -13.5v-662q0 -8 -5.5 -13.5t-13.5 -5.5h-31q-8 0 -13.5 5.5t-5.5 13.5v662z" />
    <glyph glyph-name="m" unicode="m" horiz-adv-x="762" 
d="M71 381q0 8 5.5 13.5t13.5 5.5h19q13 0 16 -12l9 -31q15 15 34 26q17 10 40.5 18.5t55.5 8.5q88 0 128 -65q2 1 14 11.5t32 22.5t46.5 21.5t56.5 9.5q43 0 73 -13.5t48 -37.5t26 -57t8 -72v-211q0 -8 -5.5 -13.5t-13.5 -5.5h-32q-8 0 -13.5 5.5t-5.5 13.5v211
q0 57 -23 85t-67 28q-24 0 -44.5 -7t-36 -16t-26 -18.5t-15.5 -14.5q5 -28 5 -57v-211q0 -8 -5.5 -13.5t-13.5 -5.5h-32q-8 0 -13.5 5.5t-5.5 13.5v211q0 57 -24.5 85t-70.5 28q-27 0 -48 -9t-36 -20q-18 -12 -30 -28v-267q0 -8 -5.5 -13.5t-13.5 -5.5h-31q-8 0 -13.5 5.5
t-5.5 13.5v362z" />
    <glyph glyph-name="n" unicode="n" horiz-adv-x="495" 
d="M71 381q0 8 5.5 13.5t13.5 5.5h19q13 0 16 -12l9 -31q17 15 39 26q19 10 44 18.5t57 8.5q43 0 73 -13.5t48 -37.5t26 -57t8 -72v-211q0 -8 -5.5 -13.5t-13.5 -5.5h-32q-8 0 -13.5 5.5t-5.5 13.5v211q0 57 -24 85t-66 28q-29 0 -52.5 -9t-40.5 -20q-20 -12 -36 -28v-267
q0 -8 -5.5 -13.5t-13.5 -5.5h-31q-8 0 -13.5 5.5t-5.5 13.5v362z" />
    <glyph glyph-name="o" unicode="o" 
d="M42 201q0 42 15.5 80t42.5 66.5t63 45.5t78 17t78 -17t63 -45.5t42.5 -66.5t15.5 -80q0 -43 -15.5 -81.5t-42.5 -67t-63 -45.5t-78 -17t-78 17t-63 45.5t-42.5 67t-15.5 81.5zM111 201q0 -30 10 -57t27.5 -46.5t41.5 -31t51 -11.5t51 11.5t41.5 31t27.5 46.5t10 57
t-10 56t-27.5 45.5t-41.5 30.5t-51 11t-51 -11t-41.5 -30.5t-27.5 -45.5t-10 -56z" />
    <glyph glyph-name="p" unicode="p" 
d="M141 -281q0 -8 -5.5 -13.5t-13.5 -5.5h-31q-8 0 -13.5 5.5t-5.5 13.5v662q0 8 5.5 13.5t13.5 5.5h21q11 0 16 -13l7 -19q13 11 31 21q15 8 36.5 14.5t48.5 6.5q41 0 75.5 -17t60 -45.5t39.5 -67t14 -81.5q0 -44 -14.5 -82t-40 -66.5t-61 -44.5t-76.5 -16q-25 0 -44.5 5
t-33.5 11q-17 7 -29 17v-304zM142 92q13 -10 28 -18q13 -7 30.5 -12t38.5 -5q29 0 53 11t41.5 30.5t27 45.5t9.5 56q0 29 -8.5 55.5t-24.5 47t-39.5 32.5t-53.5 12q-25 0 -43.5 -8t-31.5 -17q-15 -11 -27 -24v-206z" />
    <glyph glyph-name="q" unicode="q" 
d="M42 199q0 43 14 81.5t39.5 67t60 45.5t75.5 17q27 0 48.5 -6.5t36.5 -14.5q18 -10 31 -21l7 18q5 14 19 14h18q8 0 13.5 -5.5t5.5 -13.5v-662q0 -8 -5.5 -13.5t-13.5 -5.5h-31q-8 0 -13.5 5.5t-5.5 13.5v306q-13 -10 -29 -18q-14 -7 -33.5 -12t-44.5 -5q-41 0 -76.5 16
t-61 44.5t-40 66.5t-14.5 82zM112 200q0 -30 9.5 -56t27 -45.5t41.5 -30.5t53 -11q20 0 38 5t31 11q15 7 28 17v208q-12 13 -27 24q-13 9 -32 17t-43 8q-30 0 -53.5 -12t-39.5 -32.5t-24.5 -47t-8.5 -55.5z" />
    <glyph glyph-name="r" unicode="r" horiz-adv-x="334" 
d="M71 381q0 8 5.5 13.5t13.5 5.5h19q14 0 17 -14l8 -29q11 15 29 26q15 10 37 18.5t54 8.5q11 0 25 -1t25 -5t17.5 -10.5t2.5 -16.5l-12 -34q-4 -10 -10 -11t-14 2q-7 3 -17.5 5.5t-21.5 2.5q-29 0 -49 -8.5t-34 -19.5q-16 -12 -26 -28v-267q0 -8 -5.5 -13.5t-13.5 -5.5
h-31q-8 0 -13.5 5.5t-5.5 13.5v362z" />
    <glyph glyph-name="s" unicode="s" horiz-adv-x="356" 
d="M52 35q-4 3 -5.5 9.5t0.5 11.5q3 5 7.5 13t6.5 12q9 14 27 3q13 -10 28 -18q13 -7 29.5 -12t36.5 -5q31 0 48 14t17 34q0 26 -22 42t-66 38q-20 10 -40 21.5t-36.5 27t-27 35t-10.5 45.5q0 16 7 34t22 33.5t39 26t59 10.5q39 0 68 -10.5t43 -20.5q7 -5 9 -14t-3 -17
l-8 -16q-5 -8 -13.5 -10.5t-15.5 1.5q-13 7 -26 12q-11 5 -25.5 8.5t-28.5 3.5q-34 0 -45.5 -13.5t-11.5 -26.5q0 -25 21.5 -39t52.5 -29q26 -12 49.5 -25t41.5 -28.5t29 -35.5t11 -47q0 -22 -10 -42.5t-28 -36t-43.5 -25t-56.5 -9.5q-50 0 -82 16t-48 29z" />
    <glyph glyph-name="t" unicode="t" horiz-adv-x="342" 
d="M97 340h-51q-8 0 -13.5 5.5t-5.5 13.5v22q0 19 19 19h51v111q0 8 5.5 13.5t13.5 5.5l32 2q8 0 13 -5.5t5 -13.5v-113h116q19 0 19 -19v-22q0 -8 -5.5 -13.5t-13.5 -5.5h-116v-234q0 -30 8 -39t25 -9q19 0 41 8.5t32 13.5q11 6 15.5 3t8.5 -9l15 -25q5 -9 3 -14.5
t-10 -10.5q-5 -3 -17 -9t-28 -11.5t-34 -9.5t-36 -4q-30 0 -48 8.5t-28 23.5t-13 35t-3 43v240z" />
    <glyph glyph-name="u" unicode="u" horiz-adv-x="485" 
d="M66 381q0 8 5.5 13.5t13.5 5.5h32q8 0 13.5 -5.5t5.5 -13.5v-211q0 -57 24 -85t66 -28q29 0 51 8.5t37 19.5q18 12 31 29v267q0 8 5.5 13.5t13.5 5.5h31q8 0 13.5 -5.5t5.5 -13.5v-362q0 -8 -5.5 -13.5t-13.5 -5.5h-19q-8 0 -12 4.5t-6 12.5l-7 26q-15 -16 -34 -27
q-17 -10 -41 -18t-55 -8q-44 0 -73.5 13.5t-47.5 37.5t-26 57t-8 73v210z" />
    <glyph glyph-name="v" unicode="v" horiz-adv-x="411" 
d="M16 377q-5 10 -0.5 16.5t15.5 6.5h31q12 0 18 -11l124 -286h1l132 286q5 11 17 11h26q11 0 15.5 -6.5t-0.5 -16.5l-171 -377q-4 -10 -17 -10h-5q-13 0 -17 10z" />
    <glyph glyph-name="w" unicode="w" horiz-adv-x="604" 
d="M33 377q-7 23 15 23h31q14 0 18 -11l73 -264h1l113 275q4 10 17 10h5q13 0 17 -10l112 -276h1l72 265q4 11 17 11h31q22 0 15 -23l-109 -377q-3 -10 -17 -10h-5q-13 0 -17 10l-122 300l-118 -300q-4 -10 -17 -10h-5q-14 0 -17 10z" />
    <glyph glyph-name="x" unicode="x" horiz-adv-x="417" 
d="M168 204l-127 170q-8 10 -4 18t17 8h42q10 0 16 -8l95 -136h1l99 136q6 8 16 8h42q13 0 17 -8t-4 -18l-127 -169l128 -179q7 -10 3 -18t-16 -8h-37q-5 0 -9 3t-6 6l-106 147h-1l-104 -148q-6 -8 -16 -8h-37q-13 0 -16.5 8t3.5 18z" />
    <glyph glyph-name="y" unicode="y" horiz-adv-x="466" 
d="M14 378q-10 22 15 22h44q11 0 17 -11l148 -306h1l140 306q5 11 17 11h38q11 0 15.5 -6.5t-0.5 -16.5l-307 -665q-2 -5 -7 -8.5t-10 -3.5h-37q-11 0 -16 7t0 18l128 276z" />
    <glyph glyph-name="z" unicode="z" horiz-adv-x="365" 
d="M36 29l196 305v3h-168q-8 0 -13 5.5t-5 13.5v25q0 8 5 13.5t13 5.5h251q11 0 17 -8.5t0 -18.5l-191 -307v-3h154q19 0 19 -19v-25q0 -8 -5.5 -13.5t-13.5 -5.5h-240q-8 0 -13.5 5.5t-5.5 13.5v10z" />
    <glyph glyph-name="braceleft" unicode="{" horiz-adv-x="399" 
d="M109 90q0 17 -7.5 30.5t-18 23.5t-22.5 16t-21 8q-6 1 -10.5 6t-4.5 11v31q0 6 4.5 10t10.5 5q9 1 21 7.5t22.5 16.5t18 23.5t7.5 30.5v161q0 68 24 114t60 74t79 40t82 12q8 0 14 -4t6 -13v-19q0 -16 -13 -18q-36 -5 -69 -19.5t-58.5 -38t-40.5 -56t-15 -72.5v-133
q0 -38 -8.5 -61.5t-20.5 -38.5t-25.5 -22.5t-24.5 -11.5v-7q11 -5 24.5 -12t25.5 -22t20.5 -39t8.5 -61v-133q0 -41 15 -73t40.5 -55t58.5 -37.5t69 -19.5q13 -2 13 -17v-20q0 -8 -6 -12.5t-14 -4.5q-39 0 -82 11.5t-79 39.5t-60 74t-24 114v161z" />
    <glyph glyph-name="bar" unicode="|" horiz-adv-x="198" 
d="M77 741q0 8 5.5 13.5t13.5 5.5h7q8 0 13 -5.5t5 -13.5v-1023q0 -8 -5.5 -13t-13.5 -5h-6q-8 0 -13.5 5t-5.5 13v1023z" />
    <glyph glyph-name="braceright" unicode="}" horiz-adv-x="399" 
d="M221 62q0 37 8.5 61t20.5 39t25.5 22t24.5 12v7q-11 4 -24.5 11.5t-25.5 22.5t-20.5 38.5t-8.5 61.5v133q0 40 -15 72.5t-40.5 56t-58.5 38t-69 19.5q-13 2 -13 18v19q0 9 6 13t14 4q39 0 82 -12t79 -40t60 -74t24 -114v-161q0 -17 7.5 -30.5t18 -23.5t22.5 -16.5
t21 -7.5q6 -1 10.5 -5t4.5 -10v-31q0 -6 -4.5 -11t-10.5 -6q-9 -2 -21 -8t-22.5 -16t-18 -23.5t-7.5 -30.5v-161q0 -68 -24 -114t-60 -74t-79 -39.5t-82 -11.5q-8 0 -14 4.5t-6 12.5v20q0 15 13 17q36 5 69 19.5t58.5 37.5t40.5 55t15 73v133z" />
    <glyph glyph-name="asciitilde" unicode="~" horiz-adv-x="556" 
d="M79 228q-5 5 -10.5 8.5t-10.5 8.5t-6 12t4 12q17 26 37 46q17 17 41.5 31.5t54.5 14.5q35 0 61 -15t47 -30q5 -4 13.5 -9.5t18.5 -11t20.5 -9.5t20.5 -4q17 0 30.5 7.5t24 18t18 22t12.5 18.5q12 17 27 4l21 -17q5 -5 6 -12t-4 -12q-16 -26 -37 -46q-18 -17 -43 -31.5
t-55 -14.5q-33 0 -58.5 14.5t-45.5 28.5q-14 10 -33.5 23t-42.5 13q-17 0 -30.5 -7.5t-23.5 -18t-17.5 -22t-12.5 -18.5q-12 -17 -27 -4z" />
    <glyph glyph-name="uni00A0" unicode="&#xa0;" horiz-adv-x="222" 
 />
    <glyph glyph-name="exclamdown" unicode="&#xa1;" horiz-adv-x="229" 
d="M115 296q-24 0 -40.5 16.5t-16.5 40.5q0 23 16.5 40t40.5 17q23 0 40 -17t17 -40q0 -24 -17 -40.5t-40 -16.5zM90 112q1 6 6.5 11t12.5 5h12q7 0 12.5 -5t6.5 -11l19 -279v-114q0 -8 -5.5 -13.5t-13.5 -5.5h-50q-8 0 -13.5 5.5t-5.5 13.5v112z" />
    <glyph glyph-name="cent" unicode="&#xa2;" horiz-adv-x="427" 
d="M153 7q-54 23 -88.5 74t-34.5 118q0 44 16 82.5t44 67t65.5 45t80.5 16.5q7 0 13 -0.5t13 -1.5l11 41q2 8 8.5 11.5t14.5 1.5l7 -2q8 -2 11.5 -8.5t1.5 -14.5l-11 -40q43 -18 74 -57q5 -7 4 -15t-8 -13l-19 -16q-12 -10 -17 -6t-12 10q-17 18 -40 30l-74 -273
q5 -1 10.5 -1h10.5q21 0 36.5 5t28.5 12.5t22.5 17t18.5 17.5q9 9 15.5 8.5t14.5 -6.5l11 -8q17 -12 7 -28q-23 -36 -62.5 -60t-90.5 -24q-23 0 -39 4l-26 -97q-2 -8 -8.5 -11.5t-14.5 -1.5l-6 2q-8 2 -12 8t-2 14zM244 341h-3q-2 0 -3 0.5t-3 0.5q-28 0 -52.5 -11
t-42.5 -30t-28 -45t-10 -56q0 -42 18.5 -76t50.5 -52z" />
    <glyph glyph-name="sterling" unicode="&#xa3;" horiz-adv-x="504" 
d="M82 37q19 35 29.5 69t14 66.5t2 63t-6.5 58.5h-44q-8 0 -13 5.5t-5 13.5v7q0 8 5 13.5t13 5.5h32q-2 9 -7 25.5t-10.5 38.5t-10 48t-4.5 54q0 47 16 85t44.5 64.5t66.5 41t82 14.5q32 0 58.5 -8t47.5 -19.5t36.5 -23.5t24.5 -20q6 -5 6.5 -12.5t-4.5 -13.5l-21 -26
q-8 -11 -15.5 -10t-13.5 9q-17 16 -36 29q-17 11 -39.5 20t-47.5 9q-29 0 -53.5 -10t-42.5 -28.5t-28.5 -44.5t-10.5 -57q0 -29 4.5 -55.5t10.5 -48.5t11.5 -38t6.5 -23h164q8 0 13.5 -5.5t5.5 -13.5v-8q0 -8 -5.5 -13t-13.5 -5h-153q4 -20 5.5 -48.5t-1 -60.5t-8.5 -64
t-18 -57h250q8 0 13 -5.5t5 -13.5v-26q0 -8 -5 -13.5t-13 -5.5h-318q-8 0 -13.5 5.5t-5.5 13.5v18z" />
    <glyph glyph-name="currency" unicode="&#xa4;" horiz-adv-x="476" 
d="M81 195q-5 5 -5 13.5t5 13.5l41 41q-19 32 -19 69t19 69l-41 41q-5 5 -5 13.5t5 13.5l20 19q5 5 13.5 5t13.5 -5l41 -41q32 20 69 20.5t69 -19.5l42 42q5 5 13 4.5t13 -5.5l20 -20q5 -5 5 -13t-5 -13l-41 -41q20 -32 20 -70t-20 -70l41 -41q5 -5 5 -13t-5 -13l-20 -20
q-5 -5 -13 -5.5t-13 4.5l-42 42q-32 -19 -69 -19t-69 20l-41 -41q-5 -5 -13.5 -5t-13.5 5zM238 260q30 0 51 21t21 51t-21 51t-51 21t-51 -21t-21 -51t21 -51t51 -21z" />
    <glyph glyph-name="yen" unicode="&#xa5;" horiz-adv-x="618" 
d="M138 123q-8 0 -13 5.5t-5 13.5v7q0 8 5 13.5t13 5.5h131v75h-131q-8 0 -13 5.5t-5 13.5v7q0 8 5 13.5t13 5.5h131v49l-241 334q-6 10 -1 19.5t17 9.5h47q5 0 9.5 -3t6.5 -6l202 -279l202 279q2 3 6.5 6t9.5 3h47q12 0 17 -9.5t-1 -19.5l-244 -333v-50h129q8 0 13.5 -5.5
t5.5 -13.5v-8q0 -8 -5.5 -13t-13.5 -5h-129v-75h129q8 0 13.5 -5.5t5.5 -13.5v-8q0 -8 -5.5 -13t-13.5 -5h-129v-104q0 -8 -5.5 -13.5t-13.5 -5.5h-39q-8 0 -13.5 5.5t-5.5 13.5v104h-131z" />
    <glyph glyph-name="brokenbar" unicode="&#xa6;" horiz-adv-x="364" 
d="M179 393q-8 0 -13.5 5t-5.5 13v330q0 8 5.5 13.5t13.5 5.5h7q8 0 13 -5.5t5 -13.5v-330q0 -8 -5.5 -13t-13.5 -5h-6zM160 49q0 8 5.5 13.5t13.5 5.5h7q8 0 13 -5.5t5 -13.5v-331q0 -8 -5.5 -13t-13.5 -5h-6q-8 0 -13.5 5t-5.5 13v331z" />
    <glyph glyph-name="section" unicode="&#xa7;" horiz-adv-x="527" 
d="M66 -110q6 8 14 9.5t16 -6.5q2 -2 16.5 -14.5t37.5 -26t52.5 -24.5t62.5 -11q27 0 51 6t42.5 18.5t29.5 31t11 44.5q0 48 -44 84.5t-131 73.5q-80 34 -128 80.5t-48 114.5q0 32 12.5 56t27.5 40q18 18 40 32q-22 16 -40 37q-15 18 -27.5 45t-12.5 62q0 25 11 54.5t36 55
t65.5 42t100.5 16.5q37 0 68 -8t54 -18q26 -11 49 -25q5 -2 10 -10.5t-3 -22.5l-15 -23q-6 -8 -13.5 -10.5t-19.5 4.5q-3 1 -15 8.5t-30 16t-40.5 15t-45.5 6.5q-41 0 -67.5 -9.5t-42 -24.5t-22 -32.5t-6.5 -33.5q0 -42 36 -73.5t99 -57.5q51 -21 92 -41.5t70 -43.5
t44.5 -51.5t15.5 -65.5q0 -32 -13.5 -57.5t-29.5 -43.5q-18 -21 -42 -37q24 -17 42 -40q16 -20 29.5 -48t13.5 -64q0 -39 -16.5 -70.5t-45.5 -53.5t-68.5 -34t-85.5 -12q-44 0 -81 11t-64 25t-44 27t-22 18q-3 3 -6.5 6t-5 7t-0.5 9t6 12zM122 273q0 -31 15.5 -52
t43.5 -38.5t67 -35t86 -41.5q18 9 32 23q12 12 22.5 30.5t10.5 44.5q0 45 -44 75t-131 66q-11 5 -22 9.5t-20 9.5q-17 -9 -30 -21q-11 -11 -20.5 -28t-9.5 -42z" />
    <glyph glyph-name="dieresis" unicode="&#xa8;" horiz-adv-x="414" 
d="M320 585q-20 0 -33.5 13.5t-13.5 33.5t13.5 34t33.5 14t34 -14t14 -34t-14 -33.5t-34 -13.5zM127 585q-20 0 -33.5 13.5t-13.5 33.5t13.5 34t33.5 14t34 -14t14 -34t-14 -33.5t-34 -13.5z" />
    <glyph glyph-name="copyright" unicode="&#xa9;" horiz-adv-x="826" 
d="M54 350q0 74 28 139.5t77 114.5t114.5 77.5t139.5 28.5t139.5 -28.5t114.5 -77.5t77.5 -114.5t28.5 -139.5t-28.5 -139.5t-77.5 -114.5t-114.5 -77t-139.5 -28t-139.5 28t-114.5 77t-77 114.5t-28 139.5zM114 350q0 -62 23.5 -116.5t64 -95t95 -64t116.5 -23.5
t116.5 23.5t95 64t64 95t23.5 116.5t-23.5 116.5t-64 95t-95 64t-116.5 23.5t-116.5 -23.5t-95 -64t-64 -95t-23.5 -116.5zM235 348q0 39 14.5 73.5t40 60t59.5 40t73 14.5q30 0 60 -9t55 -29q7 -6 7.5 -14t-5.5 -15l-14 -18q-6 -8 -13.5 -6.5t-13.5 5.5q-35 23 -74 23
q-26 0 -48 -10t-37.5 -26.5t-24.5 -38.5t-9 -47q0 -26 9 -48t24.5 -38.5t37.5 -26t48 -9.5q38 0 71 22q8 5 15.5 6t13.5 -7l16 -19q5 -6 5 -14t-6 -14q-26 -23 -55.5 -32.5t-61.5 -9.5q-39 0 -73 14.5t-59.5 40t-40 59.5t-14.5 73z" />
    <glyph glyph-name="ordfeminine" unicode="&#xaa;" horiz-adv-x="312" 
d="M124 404q-38 0 -63.5 26t-25.5 71q0 42 29.5 69t86.5 27q11 0 22.5 -1.5t19.5 -3.5q10 -3 18 -5q0 41 -7.5 59t-37.5 18q-31 0 -53 -7t-33 -11q-5 -2 -9 2t-6 9l-5 18q-3 10 7 15q3 2 30 11t73 9q35 0 53.5 -11.5t26.5 -30t9 -42.5t1 -48v-152q0 -14 -13 -14h-18
q-6 0 -8 2.5t-4 7.5l-6 21q-12 -11 -32 -25t-55 -14zM130 451q26 0 47.5 13t31.5 25v56q-8 4 -23 8.5t-38 4.5q-29 0 -48.5 -15.5t-19.5 -40.5q0 -22 14 -36.5t36 -14.5z" />
    <glyph glyph-name="guillemotleft" unicode="&#xab;" horiz-adv-x="415" 
d="M204 194q-5 6 -4 12.5t4 11.5l109 148q2 4 7 8t11 4h14q13 0 17 -9.5t-2 -21.5l-74 -139l71 -147q6 -12 2 -21t-17 -9h-19q-9 0 -15 8zM41 194q-5 6 -4 12.5t4 11.5l109 148q2 4 7 8t11 4h14q13 0 17 -9.5t-2 -21.5l-74 -139l71 -147q6 -12 2 -21t-17 -9h-19q-9 0 -15 8z
" />
    <glyph glyph-name="logicalnot" unicode="&#xac;" horiz-adv-x="520" 
d="M56 314q-8 0 -13.5 5.5t-5.5 13.5v28q0 8 5.5 13.5t13.5 5.5h380q8 0 13.5 -6t5.5 -13v-204q0 -8 -5.5 -13t-13.5 -5h-28q-8 0 -13.5 5t-5.5 13v157h-333z" />
    <glyph glyph-name="uni00AD" unicode="&#xad;" horiz-adv-x="347" 
d="M69 220q-8 0 -13.5 5t-5.5 13v19q0 19 19 19h209q19 0 19 -19v-19q0 -8 -5.5 -13t-13.5 -5h-209z" />
    <glyph glyph-name="registered" unicode="&#xae;" horiz-adv-x="827" 
d="M54 350q0 74 28 139.5t77 114.5t114.5 77.5t139.5 28.5t139.5 -28.5t114.5 -77.5t77.5 -114.5t28.5 -139.5t-28.5 -139.5t-77.5 -114.5t-114.5 -77t-139.5 -28t-139.5 28t-114.5 77t-77 114.5t-28 139.5zM114 350q0 -62 23.5 -116.5t64 -95t95 -64t116.5 -23.5
t116.5 23.5t95 64t64 95t23.5 116.5t-23.5 116.5t-64 95t-95 64t-116.5 23.5t-116.5 -23.5t-95 -64t-64 -95t-23.5 -116.5zM288 515q0 8 5.5 13.5t13.5 5.5h142q23 0 45 -7t39.5 -21t28 -35t10.5 -49t-8.5 -47.5t-21.5 -32.5t-27 -19.5t-24 -9.5q15 -29 30 -59t30 -59
q5 -9 -0.5 -18t-16.5 -9h-34q-6 0 -11 4.5t-7 9.5l-56 125h-74v-120q0 -8 -5.5 -13.5t-13.5 -5.5h-26q-8 0 -13.5 5.5t-5.5 13.5v328zM449 365q28 0 44 17t16 40q0 26 -16 41.5t-44 15.5h-98v-114h98z" />
    <glyph glyph-name="macron" unicode="&#xaf;" horiz-adv-x="414" 
d="M79 583q-8 0 -13.5 5t-5.5 13v21q0 19 19 19h256q19 0 19 -19v-21q0 -8 -5.5 -13t-13.5 -5h-256z" />
    <glyph glyph-name="degree" unicode="&#xb0;" horiz-adv-x="334" 
d="M167 440q-28 0 -52.5 10.5t-43 29t-29 43t-10.5 52.5t10.5 52.5t29 43t43 29t52.5 10.5t52.5 -10.5t43 -29t29 -43t10.5 -52.5t-10.5 -52.5t-29 -43t-43 -29t-52.5 -10.5zM167 493q15 0 29.5 7t26 18t18 26t6.5 31q0 15 -6.5 29.5t-18 26t-26 18t-29.5 6.5
q-16 0 -31 -6.5t-26 -18t-18 -26t-7 -29.5q0 -16 7 -31t18 -26t26 -18t31 -7z" />
    <glyph glyph-name="plusminus" unicode="&#xb1;" horiz-adv-x="597" 
d="M266 384h-157q-8 0 -13.5 5.5t-5.5 13.5v28q0 8 5.5 13.5t13.5 5.5h157v148q0 8 5.5 13t13.5 5h28q8 0 13.5 -5t5.5 -13v-148h158q8 0 13 -5.5t5 -13.5v-28q0 -8 -5 -13.5t-13 -5.5h-158v-117q0 -8 -5.5 -13t-13.5 -5h-28q-8 0 -13.5 5t-5.5 13v117zM89 108q0 8 5.5 13.5
t13.5 5.5h381q8 0 13 -5.5t5 -13.5v-28q0 -8 -5 -13.5t-13 -5.5h-381q-8 0 -13.5 5.5t-5.5 13.5v28z" />
    <glyph glyph-name="uni00B2" unicode="&#xb2;" horiz-adv-x="307" 
d="M55 504q-10 0 -10 9v14l127 133q15 17 23.5 29.5t8.5 26.5q0 16 -13 31.5t-44 15.5q-17 0 -33.5 -9t-28.5 -21q-4 -4 -7 -3t-5 3l-20 21q-6 6 0 11q11 12 26 22q13 8 30.5 15.5t40.5 7.5q54 0 81 -26t27 -63q0 -24 -13.5 -45.5t-35.5 -44.5l-81 -83h121q9 0 9 -10v-25
q0 -3 -1.5 -6t-7.5 -3h-194z" />
    <glyph glyph-name="uni00B3" unicode="&#xb3;" horiz-adv-x="298" 
d="M145 494q-23 0 -40.5 4.5t-30 11.5t-20.5 13.5t-12 11.5q-6 6 1 11l21 20q7 4 13 -1q1 -1 6.5 -5t14.5 -8.5t20.5 -8.5t24.5 -4q23 0 41.5 12.5t18.5 32.5q0 19 -17.5 33.5t-55.5 14.5h-31q-10 0 -10 9v25q0 9 10 9h31q34 0 49.5 13t15.5 31q0 20 -16.5 32.5t-37.5 12.5
q-22 0 -35 -8t-21 -16q-6 -6 -13 0l-20 18q-8 6 0 12q12 11 26 20q12 8 29 14t38 6q44 0 74.5 -22.5t30.5 -60.5q0 -26 -17.5 -44.5t-34.5 -25.5v-2q9 -3 19.5 -10t20 -16.5t15.5 -21.5t6 -27q0 -37 -31 -61.5t-83 -24.5z" />
    <glyph glyph-name="acute" unicode="&#xb4;" horiz-adv-x="302" 
d="M73 583q-3 6 -1 11.5t7 7.5l150 84q5 3 13.5 3.5t12.5 -6.5l18 -36q3 -6 1.5 -12.5t-7.5 -8.5l-161 -67q-11 -5 -15.5 -4.5t-7.5 6.5z" />
    <glyph glyph-name="mu" unicode="&#xb5;" horiz-adv-x="505" 
d="M142 -281q0 -8 -5.5 -13.5t-13.5 -5.5h-31q-8 0 -13.5 5.5t-5.5 13.5v662q0 8 5.5 13.5t13.5 5.5h32q8 0 13.5 -5.5t5.5 -13.5v-211q0 -57 24 -85t66 -28q29 0 51 8.5t37 19.5q18 12 31 29v267q0 8 5.5 13.5t13.5 5.5h31q8 0 13.5 -5.5t5.5 -13.5v-362q0 -8 -5.5 -13.5
t-13.5 -5.5h-19q-8 0 -12 4.5t-6 12.5l-7 26q-15 -16 -34 -27q-17 -10 -41 -18t-55 -8q-52 0 -86 20v-291z" />
    <glyph glyph-name="paragraph" unicode="&#xb6;" horiz-adv-x="702" 
d="M233 282q-42 0 -80 16t-66.5 44.5t-45 67t-16.5 82.5q0 43 15 81t41 66.5t61.5 45t76.5 16.5l442 -1q8 0 13.5 -5.5t5.5 -13.5v-20q0 -8 -5.5 -13.5t-13.5 -5.5h-111v-924q0 -8 -5.5 -13.5t-13.5 -5.5h-21q-8 0 -13.5 5.5t-5.5 13.5v924h-156v-924q0 -8 -5.5 -13.5
t-13.5 -5.5h-20q-8 0 -13.5 5.5t-5.5 13.5v564h-44z" />
    <glyph glyph-name="periodcentered" unicode="&#xb7;" horiz-adv-x="229" 
d="M114 204q-23 0 -40 17t-17 40q0 24 17 40.5t40 16.5q24 0 40.5 -16.5t16.5 -40.5q0 -23 -16.5 -40t-40.5 -17z" />
    <glyph glyph-name="cedilla" unicode="&#xb8;" horiz-adv-x="247" 
d="M111 0v-53q46 -6 75.5 -32.5t29.5 -70.5t-30 -74t-75 -30q-23 0 -43 10t-33 25q-6 7 -5.5 14.5t5.5 11.5l14 11q5 4 12 4.5t11 -4.5q9 -10 20.5 -14t20.5 -4q20 0 32 13.5t12 33.5q0 17 -8 28.5t-20.5 18t-27 10.5t-27.5 6q-11 2 -14 9t-3 11v76h54z" />
    <glyph glyph-name="uni00B9" unicode="&#xb9;" horiz-adv-x="190" 
d="M90 504q-10 0 -10 9v210l-41 -11q-9 -2 -10 4l-5 17q-1 7 3 11l70 56h28q9 0 9 -9v-278q0 -9 -9 -9h-35z" />
    <glyph glyph-name="ordmasculine" unicode="&#xba;" horiz-adv-x="324" 
d="M162 394q-60 0 -92 41.5t-32 115.5q0 75 32 116.5t92 41.5t92 -41.5t32 -116.5q0 -74 -32 -115.5t-92 -41.5zM162 442q33 0 51 28t18 81t-18 81.5t-51 28.5t-51 -28.5t-18 -81.5t18 -81t51 -28z" />
    <glyph glyph-name="guillemotright" unicode="&#xbb;" horiz-adv-x="415" 
d="M291 208l-74 139q-6 12 -2 21.5t17 9.5h14q6 0 11 -4t7 -8l109 -148q3 -5 4 -11.5t-4 -12.5l-104 -155q-6 -8 -15 -8h-19q-13 0 -17 9t2 21zM72 31q-13 0 -17 9t2 21l71 147l-74 139q-6 12 -2 21.5t17 9.5h14q6 0 11 -4t7 -8l109 -148q3 -5 4 -11.5t-4 -12.5l-104 -155
q-6 -8 -15 -8h-19z" />
    <glyph glyph-name="onequarter" unicode="&#xbc;" horiz-adv-x="633" 
d="M433 690q6 10 17 10h16q11 0 16.5 -8.5t0.5 -18.5l-345 -663q-2 -3 -6 -6.5t-11 -3.5h-14q-11 0 -16.5 8.5t-0.5 18.5zM104 404q-10 0 -10 9v210l-41 -11q-9 -2 -10 4l-5 17q-1 7 3 11l70 56h28q9 0 9 -9v-278q0 -9 -9 -9h-35zM317 97l172 196q3 3 8 3h21q10 0 10 -9
v-185h41q9 0 9 -8v-26q0 -8 -9 -8h-41v-51q0 -9 -10 -9h-32q-10 0 -10 9v50h-150q-9 0 -9 9v29zM478 103v118l-106 -118h106z" />
    <glyph glyph-name="onehalf" unicode="&#xbd;" horiz-adv-x="626" 
d="M433 690q6 10 17 10h16q11 0 16.5 -8.5t0.5 -18.5l-345 -663q-2 -3 -6 -6.5t-11 -3.5h-14q-11 0 -16.5 8.5t-0.5 18.5zM104 404q-10 0 -10 9v210l-41 -11q-9 -2 -10 4l-5 17q-1 7 3 11l70 56h28q9 0 9 -9v-278q0 -9 -9 -9h-35zM347 23l127 133q15 17 23.5 29.5t8.5 26.5
q0 16 -13 31.5t-44 15.5q-17 0 -33.5 -9t-28.5 -21q-4 -4 -7 -3t-5 3l-20 21q-6 6 0 11q11 12 26 22q13 8 30.5 15.5t40.5 7.5q54 0 81 -26t27 -63q0 -24 -13.5 -45.5t-35.5 -44.5l-81 -83h121q9 0 9 -10v-25q0 -3 -1.5 -6t-7.5 -3h-194q-10 0 -10 9v14z" />
    <glyph glyph-name="threequarters" unicode="&#xbe;" horiz-adv-x="678" 
d="M148 394q-23 0 -40.5 4.5t-30 11.5t-20.5 13.5t-12 11.5q-6 6 1 11l21 20q7 4 13 -1q1 -1 6.5 -5t14.5 -8.5t20.5 -8.5t24.5 -4q23 0 41.5 12.5t18.5 32.5q0 19 -17.5 33.5t-55.5 14.5h-31q-10 0 -10 9v25q0 9 10 9h31q34 0 49.5 13t15.5 31q0 20 -16.5 32.5t-37.5 12.5
q-22 0 -35 -8t-21 -16q-6 -6 -13 0l-20 18q-8 6 0 12q12 11 26 20q12 8 29 14t38 6q44 0 74.5 -22.5t30.5 -60.5q0 -26 -17.5 -44.5t-34.5 -25.5v-2q9 -3 19.5 -10t20 -16.5t15.5 -21.5t6 -27q0 -37 -31 -61.5t-83 -24.5zM478 690q6 10 17 10h16q11 0 16.5 -8.5t0.5 -18.5
l-345 -663q-2 -3 -6 -6.5t-11 -3.5h-14q-11 0 -16.5 8.5t-0.5 18.5zM362 97l172 196q3 3 8 3h21q10 0 10 -9v-185h41q9 0 9 -8v-26q0 -8 -9 -8h-41v-51q0 -9 -10 -9h-32q-10 0 -10 9v50h-150q-9 0 -9 9v29zM523 103v118l-106 -118h106z" />
    <glyph glyph-name="questiondown" unicode="&#xbf;" horiz-adv-x="244" 
d="M129 296q-24 0 -40.5 16.5t-16.5 40.5q0 23 16.5 40t40.5 17q23 0 40 -17t17 -40q0 -24 -17 -40.5t-40 -16.5zM93 108q0 11 6.5 15.5t14.5 4.5h27q8 0 13.5 -5.5t5.5 -13.5v-42q0 -31 -11 -52t-28 -37t-36 -29t-36 -27.5t-28 -34t-11 -47.5q0 -35 25 -61.5t74 -26.5
q30 0 52.5 7.5t39 18.5t27.5 22.5t19 19.5q13 13 26 1l19 -17q6 -5 5.5 -12.5t-5.5 -13.5q-18 -25 -44 -44q-23 -17 -57 -30.5t-82 -13.5q-39 0 -71 11t-55 31t-35.5 48t-12.5 63q0 33 11.5 56.5t29.5 41.5t38 32.5t38 28.5t29.5 29.5t11.5 35.5v41z" />
    <glyph glyph-name="Agrave" unicode="&#xc0;" horiz-adv-x="663" 
d="M23 0q-11 0 -16.5 8t-0.5 18l304 673q5 11 17 11h10q11 0 17 -11l302 -673q5 -10 -0.5 -18t-16.5 -8h-40q-7 0 -11 3.5t-6 7.5l-74 165h-355l-73 -165q-2 -4 -6 -7.5t-11 -3.5h-40zM481 238q-37 82 -73 164t-73 164h-8l-146 -328h300zM238 848q-6 2 -7.5 8.5t1.5 12.5
l18 36q4 7 12.5 6.5t13.5 -3.5l150 -84q5 -2 7 -7.5t-1 -11.5l-10 -22q-3 -6 -7.5 -6.5t-15.5 4.5z" />
    <glyph glyph-name="Aacute" unicode="&#xc1;" horiz-adv-x="663" 
d="M23 0q-11 0 -16.5 8t-0.5 18l304 673q5 11 17 11h10q11 0 17 -11l302 -673q5 -10 -0.5 -18t-16.5 -8h-40q-7 0 -11 3.5t-6 7.5l-74 165h-355l-73 -165q-2 -4 -6 -7.5t-11 -3.5h-40zM481 238q-37 82 -73 164t-73 164h-8l-146 -328h300zM231 805q-3 6 -1 11.5t7 7.5l150 84
q5 3 13.5 3.5t12.5 -6.5l18 -36q3 -6 1.5 -12.5t-7.5 -8.5l-161 -67q-11 -5 -15.5 -4.5t-7.5 6.5z" />
    <glyph glyph-name="Acircumflex" unicode="&#xc2;" horiz-adv-x="663" 
d="M23 0q-11 0 -16.5 8t-0.5 18l304 673q5 11 17 11h10q11 0 17 -11l302 -673q5 -10 -0.5 -18t-16.5 -8h-40q-7 0 -11 3.5t-6 7.5l-74 165h-355l-73 -165q-2 -4 -6 -7.5t-11 -3.5h-40zM481 238q-37 82 -73 164t-73 164h-8l-146 -328h300zM193 793q-4 5 -1.5 10.5t7.5 8.5
l120 94q5 4 13 4t13 -4l120 -94q5 -3 7.5 -8.5t-1.5 -10.5q-3 -5 -6.5 -10.5t-8 -10t-10 -5.5t-12.5 4l-102 70l-102 -68q-9 -6 -14 -4.5t-9 6.5z" />
    <glyph glyph-name="Atilde" unicode="&#xc3;" horiz-adv-x="663" 
d="M23 0q-11 0 -16.5 8t-0.5 18l304 673q5 11 17 11h10q11 0 17 -11l302 -673q5 -10 -0.5 -18t-16.5 -8h-40q-7 0 -11 3.5t-6 7.5l-74 165h-355l-73 -165q-2 -4 -6 -7.5t-11 -3.5h-40zM481 238q-37 82 -73 164t-73 164h-8l-146 -328h300zM189 804q-6 3 -6 10t2 12
q3 7 8.5 21t16 28t26.5 24.5t41 10.5q22 0 38 -11.5t28 -25.5t22 -25.5t22 -11.5q10 0 18 5.5t13 13.5t8.5 17t5.5 15q5 16 23 8l16 -8q9 -5 7.5 -13t-3.5 -13q-4 -11 -10.5 -25t-17 -26.5t-25.5 -21t-36 -8.5t-36.5 11.5t-28.5 26t-24 26t-21 11.5q-20 0 -29.5 -17
t-14.5 -33q-2 -8 -8.5 -11.5t-16.5 1.5z" />
    <glyph glyph-name="Adieresis" unicode="&#xc4;" horiz-adv-x="663" 
d="M23 0q-11 0 -16.5 8t-0.5 18l304 673q5 11 17 11h10q11 0 17 -11l302 -673q5 -10 -0.5 -18t-16.5 -8h-40q-7 0 -11 3.5t-6 7.5l-74 165h-355l-73 -165q-2 -4 -6 -7.5t-11 -3.5h-40zM481 238q-37 82 -73 164t-73 164h-8l-146 -328h300zM427 792q-20 0 -33.5 13.5
t-13.5 33.5t13.5 34t33.5 14t34 -14t14 -34t-14 -33.5t-34 -13.5zM234 792q-20 0 -33.5 13.5t-13.5 33.5t13.5 34t33.5 14t34 -14t14 -34t-14 -33.5t-34 -13.5z" />
    <glyph glyph-name="Aring" unicode="&#xc5;" horiz-adv-x="663" 
d="M23 0q-11 0 -16.5 8t-0.5 18l304 673q5 11 17 11h10q11 0 17 -11l302 -673q5 -10 -0.5 -18t-16.5 -8h-40q-7 0 -11 3.5t-6 7.5l-74 165h-355l-73 -165q-2 -4 -6 -7.5t-11 -3.5h-40zM481 238q-37 82 -73 164t-73 164h-8l-146 -328h300zM331 758q-23 0 -43 8.5t-34.5 23
t-23 34.5t-8.5 43t8.5 43t23 34.5t34.5 23t43 8.5q22 0 42 -8.5t35 -23t23.5 -34.5t8.5 -43t-8.5 -43t-23.5 -34.5t-35 -23t-42 -8.5zM331 806q24 0 41.5 18.5t17.5 42.5t-17.5 41.5t-41.5 17.5t-42.5 -17.5t-18.5 -41.5t18.5 -42.5t42.5 -18.5z" />
    <glyph glyph-name="AE" unicode="&#xc6;" horiz-adv-x="897" 
d="M6 0q-11 0 -14.5 8t2.5 18l401 643q10 15 17 23t27 8h381q8 0 13.5 -5.5t5.5 -13.5v-29q0 -8 -5.5 -13.5t-13.5 -5.5h-342v-244h293q8 0 13.5 -5.5t5.5 -13.5v-29q0 -8 -5.5 -13.5t-13.5 -5.5h-293v-255h342q8 0 13.5 -5.5t5.5 -13.5v-29q0 -8 -5.5 -13.5t-13.5 -5.5
h-394q-8 0 -13.5 5.5t-5.5 13.5v157h-237l-104 -165q-3 -4 -8.5 -7.5t-10.5 -3.5h-41zM407 238v328l-201 -328h201z" />
    <glyph glyph-name="Ccedilla" unicode="&#xc7;" horiz-adv-x="709" 
d="M52 349q0 75 28.5 141t77 114.5t114.5 77t141 28.5q76 0 133.5 -24.5t108.5 -68.5q6 -6 6.5 -14t-5.5 -14l-27 -27q-11 -14 -26 1q-39 34 -89.5 54.5t-101.5 20.5q-59 0 -110 -23t-88.5 -62.5t-59 -92t-21.5 -110.5t21.5 -110t59 -91.5t88.5 -62.5t110 -23q33 0 59.5 6
t49 16.5t42.5 24t40 28.5q8 6 13.5 6t10.5 -3l30 -27q6 -5 5 -13.5t-6 -13.5q-51 -50 -113.5 -73.5t-129.5 -23.5v-43q46 -6 75.5 -32.5t29.5 -70.5t-30 -74t-75 -30q-23 0 -43 10t-33 25q-6 7 -5.5 14.5t5.5 11.5l14 11q5 4 12 4.5t11 -4.5q9 -10 20.5 -14t20.5 -4
q20 0 32 13.5t12 33.5q0 17 -8 28.5t-20.5 18t-27 10.5t-27.5 6q-11 2 -14 9t-3 11v70q-65 9 -121.5 40t-97.5 78.5t-64.5 108t-23.5 128.5z" />
    <glyph glyph-name="Egrave" unicode="&#xc8;" horiz-adv-x="592" 
d="M102 681q0 8 5.5 13.5t13.5 5.5h394q8 0 13.5 -5.5t5.5 -13.5v-29q0 -8 -5.5 -13.5t-13.5 -5.5h-336v-244h287q8 0 13.5 -5.5t5.5 -13.5v-29q0 -8 -5.5 -13.5t-13.5 -5.5h-287v-255h336q8 0 13.5 -5.5t5.5 -13.5v-29q0 -8 -5.5 -13.5t-13.5 -5.5h-394q-8 0 -13.5 5.5
t-5.5 13.5v662zM233 848q-6 2 -7.5 8.5t1.5 12.5l18 36q4 7 12.5 6.5t13.5 -3.5l150 -84q5 -2 7 -7.5t-1 -11.5l-10 -22q-3 -6 -7.5 -6.5t-15.5 4.5z" />
    <glyph glyph-name="Eacute" unicode="&#xc9;" horiz-adv-x="592" 
d="M102 681q0 8 5.5 13.5t13.5 5.5h394q8 0 13.5 -5.5t5.5 -13.5v-29q0 -8 -5.5 -13.5t-13.5 -5.5h-336v-244h287q8 0 13.5 -5.5t5.5 -13.5v-29q0 -8 -5.5 -13.5t-13.5 -5.5h-287v-255h336q8 0 13.5 -5.5t5.5 -13.5v-29q0 -8 -5.5 -13.5t-13.5 -5.5h-394q-8 0 -13.5 5.5
t-5.5 13.5v662zM227 805q-3 6 -1 11.5t7 7.5l150 84q5 3 13.5 3.5t12.5 -6.5l18 -36q3 -6 1.5 -12.5t-7.5 -8.5l-161 -67q-11 -5 -15.5 -4.5t-7.5 6.5z" />
    <glyph glyph-name="Ecircumflex" unicode="&#xca;" horiz-adv-x="592" 
d="M102 681q0 8 5.5 13.5t13.5 5.5h394q8 0 13.5 -5.5t5.5 -13.5v-29q0 -8 -5.5 -13.5t-13.5 -5.5h-336v-244h287q8 0 13.5 -5.5t5.5 -13.5v-29q0 -8 -5.5 -13.5t-13.5 -5.5h-287v-255h336q8 0 13.5 -5.5t5.5 -13.5v-29q0 -8 -5.5 -13.5t-13.5 -5.5h-394q-8 0 -13.5 5.5
t-5.5 13.5v662zM178 793q-4 5 -1.5 10.5t7.5 8.5l120 94q5 4 13 4t13 -4l120 -94q5 -3 7.5 -8.5t-1.5 -10.5q-3 -5 -6.5 -10.5t-8 -10t-10 -5.5t-12.5 4l-102 70l-102 -68q-9 -6 -14 -4.5t-9 6.5z" />
    <glyph glyph-name="Edieresis" unicode="&#xcb;" horiz-adv-x="592" 
d="M102 681q0 8 5.5 13.5t13.5 5.5h394q8 0 13.5 -5.5t5.5 -13.5v-29q0 -8 -5.5 -13.5t-13.5 -5.5h-336v-244h287q8 0 13.5 -5.5t5.5 -13.5v-29q0 -8 -5.5 -13.5t-13.5 -5.5h-287v-255h336q8 0 13.5 -5.5t5.5 -13.5v-29q0 -8 -5.5 -13.5t-13.5 -5.5h-394q-8 0 -13.5 5.5
t-5.5 13.5v662zM414 792q-20 0 -33.5 13.5t-13.5 33.5t13.5 34t33.5 14t34 -14t14 -34t-14 -33.5t-34 -13.5zM221 792q-20 0 -33.5 13.5t-13.5 33.5t13.5 34t33.5 14t34 -14t14 -34t-14 -33.5t-34 -13.5z" />
    <glyph glyph-name="Igrave" unicode="&#xcc;" horiz-adv-x="282" 
d="M102 681q0 8 5.5 13.5t13.5 5.5h40q8 0 13.5 -5.5t5.5 -13.5v-662q0 -8 -5.5 -13.5t-13.5 -5.5h-40q-8 0 -13.5 5.5t-5.5 13.5v662zM47 848q-6 2 -7.5 8.5t1.5 12.5l18 36q4 7 12.5 6.5t13.5 -3.5l150 -84q5 -2 7 -7.5t-1 -11.5l-10 -22q-3 -6 -7.5 -6.5t-15.5 4.5z" />
    <glyph glyph-name="Iacute" unicode="&#xcd;" horiz-adv-x="282" 
d="M102 681q0 8 5.5 13.5t13.5 5.5h40q8 0 13.5 -5.5t5.5 -13.5v-662q0 -8 -5.5 -13.5t-13.5 -5.5h-40q-8 0 -13.5 5.5t-5.5 13.5v662zM41 805q-3 6 -1 11.5t7 7.5l150 84q5 3 13.5 3.5t12.5 -6.5l18 -36q3 -6 1.5 -12.5t-7.5 -8.5l-161 -67q-11 -5 -15.5 -4.5t-7.5 6.5z
" />
    <glyph glyph-name="Icircumflex" unicode="&#xce;" horiz-adv-x="282" 
d="M102 681q0 8 5.5 13.5t13.5 5.5h40q8 0 13.5 -5.5t5.5 -13.5v-662q0 -8 -5.5 -13.5t-13.5 -5.5h-40q-8 0 -13.5 5.5t-5.5 13.5v662zM2 793q-4 5 -1.5 10.5t7.5 8.5l120 94q5 4 13 4t13 -4l120 -94q5 -3 7.5 -8.5t-1.5 -10.5q-3 -5 -6.5 -10.5t-8 -10t-10 -5.5t-12.5 4
l-102 70l-102 -68q-9 -6 -14 -4.5t-9 6.5z" />
    <glyph glyph-name="Idieresis" unicode="&#xcf;" horiz-adv-x="282" 
d="M102 681q0 8 5.5 13.5t13.5 5.5h40q8 0 13.5 -5.5t5.5 -13.5v-662q0 -8 -5.5 -13.5t-13.5 -5.5h-40q-8 0 -13.5 5.5t-5.5 13.5v662zM238 792q-20 0 -33.5 13.5t-13.5 33.5t13.5 34t33.5 14t34 -14t14 -34t-14 -33.5t-34 -13.5zM45 792q-20 0 -33.5 13.5t-13.5 33.5
t13.5 34t33.5 14t34 -14t14 -34t-14 -33.5t-34 -13.5z" />
    <glyph glyph-name="Eth" unicode="&#xd0;" horiz-adv-x="751" 
d="M106 324h-29q-8 0 -13 5.5t-5 13.5v7q0 8 5 13.5t13 5.5h29v312q0 8 5 13.5t13 5.5h224q72 0 136 -27.5t112 -75t75.5 -111t27.5 -135.5q0 -73 -27.5 -137t-75.5 -111.5t-112 -75t-136 -27.5h-224q-8 0 -13 5.5t-5 13.5v305zM332 69q61 0 113 21t90 58.5t59 89t21 113.5
q0 61 -21 113t-59 89t-90 58t-113 21h-150v-263h211q8 0 13.5 -5.5t5.5 -13.5v-8q0 -8 -5.5 -13t-13.5 -5h-211v-255h150z" />
    <glyph glyph-name="Ntilde" unicode="&#xd1;" horiz-adv-x="774" 
d="M102 692q0 8 5.5 13t13.5 5h25l451 -562h2v533q0 8 5.5 13.5t13.5 5.5h35q8 0 13.5 -5.5t5.5 -13.5v-673q0 -8 -5.5 -13t-13.5 -5h-18l-459 573h-1v-544q0 -8 -5.5 -13.5t-13.5 -5.5h-35q-8 0 -13.5 5.5t-5.5 13.5v673zM256 804q-6 3 -6 10t2 12q3 7 8.5 21t16 28
t26.5 24.5t41 10.5q22 0 38 -11.5t28 -25.5t22 -25.5t22 -11.5q10 0 18 5.5t13 13.5t8.5 17t5.5 15q5 16 23 8l16 -8q9 -5 7.5 -13t-3.5 -13q-4 -11 -10.5 -25t-17 -26.5t-25.5 -21t-36 -8.5t-36.5 11.5t-28.5 26t-24 26t-21 11.5q-20 0 -29.5 -17t-14.5 -33
q-2 -8 -8.5 -11.5t-16.5 1.5z" />
    <glyph glyph-name="Ograve" unicode="&#xd2;" horiz-adv-x="821" 
d="M51 349q0 75 28 141t76.5 114.5t114 77t140.5 28.5t140.5 -28.5t114.5 -77t77 -114.5t28 -141t-28 -140.5t-77 -114t-114.5 -76.5t-140.5 -28t-140.5 28t-114 76.5t-76.5 114t-28 140.5zM121 349q0 -60 23 -112.5t62 -91.5t91.5 -62t112.5 -23t112.5 23t92 62t62.5 91.5
t23 112.5t-23 112.5t-62.5 92.5t-92 63t-112.5 23t-112.5 -23t-91.5 -63t-62 -92.5t-23 -112.5zM326 848q-6 2 -7.5 8.5t1.5 12.5l18 36q4 7 12.5 6.5t13.5 -3.5l150 -84q5 -2 7 -7.5t-1 -11.5l-10 -22q-3 -6 -7.5 -6.5t-15.5 4.5z" />
    <glyph glyph-name="Oacute" unicode="&#xd3;" horiz-adv-x="821" 
d="M51 349q0 75 28 141t76.5 114.5t114 77t140.5 28.5t140.5 -28.5t114.5 -77t77 -114.5t28 -141t-28 -140.5t-77 -114t-114.5 -76.5t-140.5 -28t-140.5 28t-114 76.5t-76.5 114t-28 140.5zM121 349q0 -60 23 -112.5t62 -91.5t91.5 -62t112.5 -23t112.5 23t92 62t62.5 91.5
t23 112.5t-23 112.5t-62.5 92.5t-92 63t-112.5 23t-112.5 -23t-91.5 -63t-62 -92.5t-23 -112.5zM320 805q-3 6 -1 11.5t7 7.5l150 84q5 3 13.5 3.5t12.5 -6.5l18 -36q3 -6 1.5 -12.5t-7.5 -8.5l-161 -67q-11 -5 -15.5 -4.5t-7.5 6.5z" />
    <glyph glyph-name="Ocircumflex" unicode="&#xd4;" horiz-adv-x="821" 
d="M51 349q0 75 28 141t76.5 114.5t114 77t140.5 28.5t140.5 -28.5t114.5 -77t77 -114.5t28 -141t-28 -140.5t-77 -114t-114.5 -76.5t-140.5 -28t-140.5 28t-114 76.5t-76.5 114t-28 140.5zM121 349q0 -60 23 -112.5t62 -91.5t91.5 -62t112.5 -23t112.5 23t92 62t62.5 91.5
t23 112.5t-23 112.5t-62.5 92.5t-92 63t-112.5 23t-112.5 -23t-91.5 -63t-62 -92.5t-23 -112.5zM271 793q-4 5 -1.5 10.5t7.5 8.5l120 94q5 4 13 4t13 -4l120 -94q5 -3 7.5 -8.5t-1.5 -10.5q-3 -5 -6.5 -10.5t-8 -10t-10 -5.5t-12.5 4l-102 70l-102 -68q-9 -6 -14 -4.5
t-9 6.5z" />
    <glyph glyph-name="Otilde" unicode="&#xd5;" horiz-adv-x="821" 
d="M51 349q0 75 28 141t76.5 114.5t114 77t140.5 28.5t140.5 -28.5t114.5 -77t77 -114.5t28 -141t-28 -140.5t-77 -114t-114.5 -76.5t-140.5 -28t-140.5 28t-114 76.5t-76.5 114t-28 140.5zM121 349q0 -60 23 -112.5t62 -91.5t91.5 -62t112.5 -23t112.5 23t92 62t62.5 91.5
t23 112.5t-23 112.5t-62.5 92.5t-92 63t-112.5 23t-112.5 -23t-91.5 -63t-62 -92.5t-23 -112.5zM267 804q-6 3 -6 10t2 12q3 7 8.5 21t16 28t26.5 24.5t41 10.5q22 0 38 -11.5t28 -25.5t22 -25.5t22 -11.5q10 0 18 5.5t13 13.5t8.5 17t5.5 15q5 16 23 8l16 -8q9 -5 7.5 -13
t-3.5 -13q-4 -11 -10.5 -25t-17 -26.5t-25.5 -21t-36 -8.5t-36.5 11.5t-28.5 26t-24 26t-21 11.5q-20 0 -29.5 -17t-14.5 -33q-2 -8 -8.5 -11.5t-16.5 1.5z" />
    <glyph glyph-name="Odieresis" unicode="&#xd6;" horiz-adv-x="821" 
d="M51 349q0 75 28 141t76.5 114.5t114 77t140.5 28.5t140.5 -28.5t114.5 -77t77 -114.5t28 -141t-28 -140.5t-77 -114t-114.5 -76.5t-140.5 -28t-140.5 28t-114 76.5t-76.5 114t-28 140.5zM121 349q0 -60 23 -112.5t62 -91.5t91.5 -62t112.5 -23t112.5 23t92 62t62.5 91.5
t23 112.5t-23 112.5t-62.5 92.5t-92 63t-112.5 23t-112.5 -23t-91.5 -63t-62 -92.5t-23 -112.5zM507 792q-20 0 -33.5 13.5t-13.5 33.5t13.5 34t33.5 14t34 -14t14 -34t-14 -33.5t-34 -13.5zM314 792q-20 0 -33.5 13.5t-13.5 33.5t13.5 34t33.5 14t34 -14t14 -34t-14 -33.5
t-34 -13.5z" />
    <glyph glyph-name="multiply" unicode="&#xd7;" horiz-adv-x="481" 
d="M83 210q-5 5 -5 13t5 13l111 111l-111 111q-5 5 -5 13.5t5 13.5l19 20q5 5 13.5 5t13.5 -5l111 -111l112 112q5 5 13 4.5t13 -5.5l20 -20q5 -5 5.5 -13t-4.5 -13l-112 -112l112 -111q5 -6 4.5 -14t-5.5 -13l-20 -19q-5 -5 -13 -5.5t-13 4.5l-112 112l-111 -111
q-5 -5 -13 -5t-13 5z" />
    <glyph glyph-name="Oslash" unicode="&#xd8;" horiz-adv-x="821" 
d="M81 22q-5 5 -5.5 13t4.5 13l61 61q-42 48 -66 109t-24 131q0 75 28 141t76.5 114.5t114 77t140.5 28.5q69 0 130.5 -24.5t109.5 -66.5l63 63q5 5 13 5t13 -5l5 -5q5 -5 5 -13t-5 -13l-63 -63q42 -48 65.5 -109t23.5 -130q0 -75 -28 -140.5t-77 -114t-114.5 -76.5
t-140.5 -28q-69 0 -129.5 23t-108.5 65l-61 -61q-5 -5 -13 -4.5t-13 5.5zM600 569q-38 33 -87 52t-103 19q-60 0 -112.5 -23t-91.5 -63t-62 -92.5t-23 -112.5q0 -54 19 -102.5t52 -86.5zM223 129q38 -32 85.5 -50.5t101.5 -18.5q60 0 112.5 23t92 62t62.5 91.5t23 112.5
q0 54 -18.5 102t-51.5 86z" />
    <glyph glyph-name="Ugrave" unicode="&#xd9;" horiz-adv-x="716" 
d="M93 681q0 8 5.5 13.5t13.5 5.5h38q8 0 13.5 -5.5t5.5 -13.5v-417q0 -43 13 -80t37 -64.5t59 -43t79 -15.5t79.5 15.5t60 42.5t37.5 63.5t13 79.5v419q0 8 5.5 13.5t13.5 5.5h38q8 0 13.5 -5.5t5.5 -13.5v-423q0 -57 -19.5 -106t-54.5 -85t-84 -56.5t-108 -20.5
t-107.5 20.5t-83.5 56.5t-54 85t-19 106v423zM262 848q-6 2 -7.5 8.5t1.5 12.5l18 36q4 7 12.5 6.5t13.5 -3.5l150 -84q5 -2 7 -7.5t-1 -11.5l-10 -22q-3 -6 -7.5 -6.5t-15.5 4.5z" />
    <glyph glyph-name="Uacute" unicode="&#xda;" horiz-adv-x="716" 
d="M93 681q0 8 5.5 13.5t13.5 5.5h38q8 0 13.5 -5.5t5.5 -13.5v-417q0 -43 13 -80t37 -64.5t59 -43t79 -15.5t79.5 15.5t60 42.5t37.5 63.5t13 79.5v419q0 8 5.5 13.5t13.5 5.5h38q8 0 13.5 -5.5t5.5 -13.5v-423q0 -57 -19.5 -106t-54.5 -85t-84 -56.5t-108 -20.5
t-107.5 20.5t-83.5 56.5t-54 85t-19 106v423zM256 805q-3 6 -1 11.5t7 7.5l150 84q5 3 13.5 3.5t12.5 -6.5l18 -36q3 -6 1.5 -12.5t-7.5 -8.5l-161 -67q-11 -5 -15.5 -4.5t-7.5 6.5z" />
    <glyph glyph-name="Ucircumflex" unicode="&#xdb;" horiz-adv-x="716" 
d="M93 681q0 8 5.5 13.5t13.5 5.5h38q8 0 13.5 -5.5t5.5 -13.5v-417q0 -43 13 -80t37 -64.5t59 -43t79 -15.5t79.5 15.5t60 42.5t37.5 63.5t13 79.5v419q0 8 5.5 13.5t13.5 5.5h38q8 0 13.5 -5.5t5.5 -13.5v-423q0 -57 -19.5 -106t-54.5 -85t-84 -56.5t-108 -20.5
t-107.5 20.5t-83.5 56.5t-54 85t-19 106v423zM214 793q-4 5 -1.5 10.5t7.5 8.5l120 94q5 4 13 4t13 -4l120 -94q5 -3 7.5 -8.5t-1.5 -10.5q-3 -5 -6.5 -10.5t-8 -10t-10 -5.5t-12.5 4l-102 70l-102 -68q-9 -6 -14 -4.5t-9 6.5z" />
    <glyph glyph-name="Udieresis" unicode="&#xdc;" horiz-adv-x="716" 
d="M93 681q0 8 5.5 13.5t13.5 5.5h38q8 0 13.5 -5.5t5.5 -13.5v-417q0 -43 13 -80t37 -64.5t59 -43t79 -15.5t79.5 15.5t60 42.5t37.5 63.5t13 79.5v419q0 8 5.5 13.5t13.5 5.5h38q8 0 13.5 -5.5t5.5 -13.5v-423q0 -57 -19.5 -106t-54.5 -85t-84 -56.5t-108 -20.5
t-107.5 20.5t-83.5 56.5t-54 85t-19 106v423zM453 792q-20 0 -33.5 13.5t-13.5 33.5t13.5 34t33.5 14t34 -14t14 -34t-14 -33.5t-34 -13.5zM260 792q-20 0 -33.5 13.5t-13.5 33.5t13.5 34t33.5 14t34 -14t14 -34t-14 -33.5t-34 -13.5z" />
    <glyph glyph-name="Yacute" unicode="&#xdd;" horiz-adv-x="565" 
d="M243 337l-241 334q-6 10 -1 19.5t17 9.5h47q5 0 9.5 -3t6.5 -6l202 -279l202 279q2 3 6.5 6t9.5 3h47q12 0 17 -9.5t-1 -19.5l-244 -333v-319q0 -8 -5.5 -13.5t-13.5 -5.5h-39q-8 0 -13.5 5.5t-5.5 13.5v318zM183 805q-3 6 -1 11.5t7 7.5l150 84q5 3 13.5 3.5t12.5 -6.5
l18 -36q3 -6 1.5 -12.5t-7.5 -8.5l-161 -67q-11 -5 -15.5 -4.5t-7.5 6.5z" />
    <glyph glyph-name="Thorn" unicode="&#xde;" horiz-adv-x="597" 
d="M102 680q0 8 5.5 14t13.5 6h38q8 0 13.5 -5.5t5.5 -13.5v-107h164q46 0 87 -17.5t71.5 -47.5t48 -70.5t17.5 -85.5q0 -47 -17.5 -87.5t-48 -71.5t-71 -48.5t-86.5 -17.5h-165v-109q0 -8 -5.5 -13.5t-13.5 -5.5h-38q-8 0 -13.5 5.5t-5.5 13.5v661zM337 202q31 0 58.5 12
t48.5 32.5t33 48.5t12 60q0 30 -12 56.5t-33 45.5t-48.5 30t-58.5 11h-159v-296h159z" />
    <glyph glyph-name="germandbls" unicode="&#xdf;" horiz-adv-x="541" 
d="M72 411q0 149 53.5 224t156.5 75q32 0 62.5 -8.5t54 -26.5t37.5 -47t14 -69q0 -36 -14 -66.5t-30.5 -56.5t-30.5 -47t-14 -37q0 -10 11 -22t27 -26t35 -31t35 -38t27 -46t11 -56q0 -38 -14 -65t-37 -44.5t-52.5 -25.5t-60.5 -8q-35 0 -62 7.5t-35 11.5q-7 3 -12.5 7.5
t-2.5 15.5l8 30q5 21 21 12q3 -2 11.5 -6t20 -7.5t24.5 -6.5t27 -3q42 0 66.5 23t24.5 60q0 33 -23.5 60t-52 52t-52 49.5t-23.5 53.5q0 23 15 49.5t33 54t33 54t15 49.5t-8.5 40t-23 28.5t-32 17.5t-35.5 6q-138 0 -138 -238v-391q0 -8 -5.5 -13.5t-13.5 -5.5h-32
q-8 0 -13.5 5.5t-5.5 13.5v392z" />
    <glyph glyph-name="agrave" unicode="&#xe0;" horiz-adv-x="420" 
d="M42 121q0 57 41 95t119 38q16 0 31.5 -2.5t27.5 -4.5q14 -3 26 -6q0 28 -2 48t-9 33.5t-20 20t-34 6.5q-42 0 -74 -8.5t-46 -13.5q-14 -6 -19 10l-8 25q-3 9 0.5 14t10.5 8q2 1 13.5 5.5t30 9t43 8t52.5 3.5q38 0 62.5 -10t39 -30.5t20 -52.5t5.5 -76v-222
q0 -8 -5.5 -13.5t-13.5 -5.5h-19q-8 0 -11.5 4t-5.5 11l-8 27q-16 -16 -46.5 -34t-77.5 -18q-26 0 -48.5 9t-39 26.5t-26 41.5t-9.5 54zM106 121q0 -30 19 -50.5t51 -20.5q38 0 67.5 18.5t42.5 37.5v79q-9 5 -30 10.5t-54 5.5q-42 0 -69 -20.5t-27 -59.5zM128 626
q-6 2 -7.5 8.5t1.5 12.5l18 36q4 7 12.5 6.5t13.5 -3.5l150 -84q5 -2 7 -7.5t-1 -11.5l-10 -22q-3 -6 -7.5 -6.5t-15.5 4.5z" />
    <glyph glyph-name="aacute" unicode="&#xe1;" horiz-adv-x="420" 
d="M42 121q0 57 41 95t119 38q16 0 31.5 -2.5t27.5 -4.5q14 -3 26 -6q0 28 -2 48t-9 33.5t-20 20t-34 6.5q-42 0 -74 -8.5t-46 -13.5q-14 -6 -19 10l-8 25q-3 9 0.5 14t10.5 8q2 1 13.5 5.5t30 9t43 8t52.5 3.5q38 0 62.5 -10t39 -30.5t20 -52.5t5.5 -76v-222
q0 -8 -5.5 -13.5t-13.5 -5.5h-19q-8 0 -11.5 4t-5.5 11l-8 27q-16 -16 -46.5 -34t-77.5 -18q-26 0 -48.5 9t-39 26.5t-26 41.5t-9.5 54zM106 121q0 -30 19 -50.5t51 -20.5q38 0 67.5 18.5t42.5 37.5v79q-9 5 -30 10.5t-54 5.5q-42 0 -69 -20.5t-27 -59.5zM114 583
q-3 6 -1 11.5t7 7.5l150 84q5 3 13.5 3.5t12.5 -6.5l18 -36q3 -6 1.5 -12.5t-7.5 -8.5l-161 -67q-11 -5 -15.5 -4.5t-7.5 6.5z" />
    <glyph glyph-name="acircumflex" unicode="&#xe2;" horiz-adv-x="420" 
d="M42 121q0 57 41 95t119 38q16 0 31.5 -2.5t27.5 -4.5q14 -3 26 -6q0 28 -2 48t-9 33.5t-20 20t-34 6.5q-42 0 -74 -8.5t-46 -13.5q-14 -6 -19 10l-8 25q-3 9 0.5 14t10.5 8q2 1 13.5 5.5t30 9t43 8t52.5 3.5q38 0 62.5 -10t39 -30.5t20 -52.5t5.5 -76v-222
q0 -8 -5.5 -13.5t-13.5 -5.5h-19q-8 0 -11.5 4t-5.5 11l-8 27q-16 -16 -46.5 -34t-77.5 -18q-26 0 -48.5 9t-39 26.5t-26 41.5t-9.5 54zM106 121q0 -30 19 -50.5t51 -20.5q38 0 67.5 18.5t42.5 37.5v79q-9 5 -30 10.5t-54 5.5q-42 0 -69 -20.5t-27 -59.5zM67 573
q-4 5 -1.5 10.5t7.5 8.5l120 94q5 4 13 4t13 -4l120 -94q5 -3 7.5 -8.5t-1.5 -10.5q-3 -5 -6.5 -10.5t-8 -10t-10 -5.5t-12.5 4l-102 70l-102 -68q-9 -6 -14 -4.5t-9 6.5z" />
    <glyph glyph-name="atilde" unicode="&#xe3;" horiz-adv-x="420" 
d="M42 121q0 57 41 95t119 38q16 0 31.5 -2.5t27.5 -4.5q14 -3 26 -6q0 28 -2 48t-9 33.5t-20 20t-34 6.5q-42 0 -74 -8.5t-46 -13.5q-14 -6 -19 10l-8 25q-3 9 0.5 14t10.5 8q2 1 13.5 5.5t30 9t43 8t52.5 3.5q38 0 62.5 -10t39 -30.5t20 -52.5t5.5 -76v-222
q0 -8 -5.5 -13.5t-13.5 -5.5h-19q-8 0 -11.5 4t-5.5 11l-8 27q-16 -16 -46.5 -34t-77.5 -18q-26 0 -48.5 9t-39 26.5t-26 41.5t-9.5 54zM106 121q0 -30 19 -50.5t51 -20.5q38 0 67.5 18.5t42.5 37.5v79q-9 5 -30 10.5t-54 5.5q-42 0 -69 -20.5t-27 -59.5zM64 584q-6 3 -6 10
t2 12q3 7 8.5 21t16 28t26.5 24.5t41 10.5q22 0 38 -11.5t28 -25.5t22 -25.5t22 -11.5q10 0 18 5.5t13 13.5t8.5 17t5.5 15q5 16 23 8l16 -8q9 -5 7.5 -13t-3.5 -13q-4 -11 -10.5 -25t-17 -26.5t-25.5 -21t-36 -8.5t-36.5 11.5t-28.5 26t-24 26t-21 11.5q-20 0 -29.5 -17
t-14.5 -33q-2 -8 -8.5 -11.5t-16.5 1.5z" />
    <glyph glyph-name="adieresis" unicode="&#xe4;" horiz-adv-x="420" 
d="M42 121q0 57 41 95t119 38q16 0 31.5 -2.5t27.5 -4.5q14 -3 26 -6q0 28 -2 48t-9 33.5t-20 20t-34 6.5q-42 0 -74 -8.5t-46 -13.5q-14 -6 -19 10l-8 25q-3 9 0.5 14t10.5 8q2 1 13.5 5.5t30 9t43 8t52.5 3.5q38 0 62.5 -10t39 -30.5t20 -52.5t5.5 -76v-222
q0 -8 -5.5 -13.5t-13.5 -5.5h-19q-8 0 -11.5 4t-5.5 11l-8 27q-16 -16 -46.5 -34t-77.5 -18q-26 0 -48.5 9t-39 26.5t-26 41.5t-9.5 54zM106 121q0 -30 19 -50.5t51 -20.5q38 0 67.5 18.5t42.5 37.5v79q-9 5 -30 10.5t-54 5.5q-42 0 -69 -20.5t-27 -59.5zM315 585
q-20 0 -33.5 13.5t-13.5 33.5t13.5 34t33.5 14t34 -14t14 -34t-14 -33.5t-34 -13.5zM122 585q-20 0 -33.5 13.5t-13.5 33.5t13.5 34t33.5 14t34 -14t14 -34t-14 -33.5t-34 -13.5z" />
    <glyph glyph-name="aring" unicode="&#xe5;" horiz-adv-x="420" 
d="M42 121q0 57 41 95t119 38q16 0 31.5 -2.5t27.5 -4.5q14 -3 26 -6q0 28 -2 48t-9 33.5t-20 20t-34 6.5q-42 0 -74 -8.5t-46 -13.5q-14 -6 -19 10l-8 25q-3 9 0.5 14t10.5 8q2 1 13.5 5.5t30 9t43 8t52.5 3.5q38 0 62.5 -10t39 -30.5t20 -52.5t5.5 -76v-222
q0 -8 -5.5 -13.5t-13.5 -5.5h-19q-8 0 -11.5 4t-5.5 11l-8 27q-16 -16 -46.5 -34t-77.5 -18q-26 0 -48.5 9t-39 26.5t-26 41.5t-9.5 54zM106 121q0 -30 19 -50.5t51 -20.5q38 0 67.5 18.5t42.5 37.5v79q-9 5 -30 10.5t-54 5.5q-42 0 -69 -20.5t-27 -59.5zM207 492
q-23 0 -43 8.5t-34.5 23t-23 34.5t-8.5 43t8.5 43t23 34.5t34.5 23t43 8.5q22 0 42 -8.5t35 -23t23.5 -34.5t8.5 -43t-8.5 -43t-23.5 -34.5t-35 -23t-42 -8.5zM207 540q24 0 41.5 18.5t17.5 42.5t-17.5 41.5t-41.5 17.5t-42.5 -17.5t-18.5 -41.5t18.5 -42.5t42.5 -18.5z" />
    <glyph glyph-name="ae" unicode="&#xe6;" horiz-adv-x="690" 
d="M43 124q0 57 39 93t109 36q20 0 36.5 -1t28.5 -2q14 -2 26 -3q1 56 -9 80t-47 24q-47 0 -80 -9.5t-47 -14.5q-8 -2 -13.5 2t-7.5 12l-5 25q-3 15 16 20q18 7 41 12q19 5 44.5 8.5t54.5 3.5q51 0 74.5 -14.5t34.5 -40.5q26 25 60 40t74 15q37 0 70 -13t57.5 -37t38.5 -58
t14 -75q0 -15 -3 -29.5t-17 -14.5h-280v-61q18 -32 51.5 -49.5t74.5 -17.5q32 0 57 8.5t42 19.5q11 6 16.5 8t11.5 -6l17 -23q5 -7 6 -12.5t-10 -13.5q-19 -14 -57 -30t-90 -16q-98 0 -151 71q-10 -13 -25 -26t-34 -23t-41 -16t-46 -6q-59 0 -95 36.5t-36 97.5zM584 240
q-1 23 -10.5 43t-24.5 34.5t-35 22.5t-43 8q-37 0 -69 -19.5t-48 -47.5v-41h230zM106 122q0 -38 25 -55t56 -17q32 0 58 16t39 35v89q-9 2 -21 4q-11 2 -26.5 3.5t-35.5 1.5q-38 0 -66.5 -19.5t-28.5 -57.5z" />
    <glyph glyph-name="ccedilla" unicode="&#xe7;" horiz-adv-x="443" 
d="M42 199q0 44 17 82.5t45.5 67t65.5 45t78 16.5q88 0 143 -70q5 -7 4 -15t-8 -13l-19 -16q-11 -11 -16.5 -6.5t-12.5 10.5q-15 17 -39 29.5t-53 12.5q-28 0 -52.5 -11t-42.5 -30t-28 -45t-10 -56t10 -56.5t28 -46t42 -30.5t52 -11q22 0 38.5 5t28.5 12.5t21 17t18 17.5
q9 9 15.5 8.5t14.5 -6.5l11 -8q17 -12 7 -28q-21 -34 -56.5 -56.5t-81.5 -26.5v-44q46 -6 75.5 -32.5t29.5 -70.5t-30 -74t-75 -30q-23 0 -43 10t-33 25q-6 7 -5.5 14.5t5.5 11.5l14 11q5 4 12 4.5t11 -4.5q9 -10 20.5 -14t20.5 -4q20 0 32 13.5t12 33.5q0 17 -8 28.5
t-20.5 18t-27 10.5t-27.5 6q-11 2 -14 9t-3 11v70q-35 6 -65 24t-52.5 45t-35.5 61.5t-13 74.5z" />
    <glyph glyph-name="egrave" unicode="&#xe8;" horiz-adv-x="457" 
d="M42 200q0 42 13.5 80.5t39 67t62 45.5t81.5 17q39 0 72.5 -14t57.5 -38.5t37.5 -58t13.5 -72.5q0 -5 -0.5 -13.5t-1.5 -13.5q-2 -17 -18 -17h-288q1 -25 12.5 -48.5t29.5 -41.5t41.5 -29t50.5 -11q32 0 57 9.5t42 20.5q11 6 16.5 8t11.5 -6q5 -6 8.5 -11.5t8.5 -11.5
q5 -7 6 -12.5t-10 -13.5q-18 -14 -56.5 -30t-90.5 -16q-45 0 -81.5 16.5t-62 45t-39 67t-13.5 81.5zM350 239q-1 22 -10 42t-24 35t-35 24t-43 9q-25 0 -47 -8.5t-38.5 -23.5t-27 -35t-13.5 -43h238zM143 626q-6 2 -7.5 8.5t1.5 12.5l18 36q4 7 12.5 6.5t13.5 -3.5l150 -84
q5 -2 7 -7.5t-1 -11.5l-10 -22q-3 -6 -7.5 -6.5t-15.5 4.5z" />
    <glyph glyph-name="eacute" unicode="&#xe9;" horiz-adv-x="457" 
d="M42 200q0 42 13.5 80.5t39 67t62 45.5t81.5 17q39 0 72.5 -14t57.5 -38.5t37.5 -58t13.5 -72.5q0 -5 -0.5 -13.5t-1.5 -13.5q-2 -17 -18 -17h-288q1 -25 12.5 -48.5t29.5 -41.5t41.5 -29t50.5 -11q32 0 57 9.5t42 20.5q11 6 16.5 8t11.5 -6q5 -6 8.5 -11.5t8.5 -11.5
q5 -7 6 -12.5t-10 -13.5q-18 -14 -56.5 -30t-90.5 -16q-45 0 -81.5 16.5t-62 45t-39 67t-13.5 81.5zM350 239q-1 22 -10 42t-24 35t-35 24t-43 9q-25 0 -47 -8.5t-38.5 -23.5t-27 -35t-13.5 -43h238zM134 583q-3 6 -1 11.5t7 7.5l150 84q5 3 13.5 3.5t12.5 -6.5l18 -36
q3 -6 1.5 -12.5t-7.5 -8.5l-161 -67q-11 -5 -15.5 -4.5t-7.5 6.5z" />
    <glyph glyph-name="ecircumflex" unicode="&#xea;" horiz-adv-x="457" 
d="M42 200q0 42 13.5 80.5t39 67t62 45.5t81.5 17q39 0 72.5 -14t57.5 -38.5t37.5 -58t13.5 -72.5q0 -5 -0.5 -13.5t-1.5 -13.5q-2 -17 -18 -17h-288q1 -25 12.5 -48.5t29.5 -41.5t41.5 -29t50.5 -11q32 0 57 9.5t42 20.5q11 6 16.5 8t11.5 -6q5 -6 8.5 -11.5t8.5 -11.5
q5 -7 6 -12.5t-10 -13.5q-18 -14 -56.5 -30t-90.5 -16q-45 0 -81.5 16.5t-62 45t-39 67t-13.5 81.5zM350 239q-1 22 -10 42t-24 35t-35 24t-43 9q-25 0 -47 -8.5t-38.5 -23.5t-27 -35t-13.5 -43h238zM101 573q-4 5 -1.5 10.5t7.5 8.5l120 94q5 4 13 4t13 -4l120 -94
q5 -3 7.5 -8.5t-1.5 -10.5q-3 -5 -6.5 -10.5t-8 -10t-10 -5.5t-12.5 4l-102 70l-102 -68q-9 -6 -14 -4.5t-9 6.5z" />
    <glyph glyph-name="edieresis" unicode="&#xeb;" horiz-adv-x="457" 
d="M42 200q0 42 13.5 80.5t39 67t62 45.5t81.5 17q39 0 72.5 -14t57.5 -38.5t37.5 -58t13.5 -72.5q0 -5 -0.5 -13.5t-1.5 -13.5q-2 -17 -18 -17h-288q1 -25 12.5 -48.5t29.5 -41.5t41.5 -29t50.5 -11q32 0 57 9.5t42 20.5q11 6 16.5 8t11.5 -6q5 -6 8.5 -11.5t8.5 -11.5
q5 -7 6 -12.5t-10 -13.5q-18 -14 -56.5 -30t-90.5 -16q-45 0 -81.5 16.5t-62 45t-39 67t-13.5 81.5zM350 239q-1 22 -10 42t-24 35t-35 24t-43 9q-25 0 -47 -8.5t-38.5 -23.5t-27 -35t-13.5 -43h238zM333 585q-20 0 -33.5 13.5t-13.5 33.5t13.5 34t33.5 14t34 -14t14 -34
t-14 -33.5t-34 -13.5zM140 585q-20 0 -33.5 13.5t-13.5 33.5t13.5 34t33.5 14t34 -14t14 -34t-14 -33.5t-34 -13.5z" />
    <glyph glyph-name="igrave" unicode="&#xec;" horiz-adv-x="211" 
d="M71 381q0 8 5.5 13.5t13.5 5.5h31q8 0 13.5 -5.5t5.5 -13.5v-362q0 -8 -5.5 -13.5t-13.5 -5.5h-31q-8 0 -13.5 5.5t-5.5 13.5v362zM12 626q-6 2 -7.5 8.5t1.5 12.5l18 36q4 7 12.5 6.5t13.5 -3.5l150 -84q5 -2 7 -7.5t-1 -11.5l-10 -22q-3 -6 -7.5 -6.5t-15.5 4.5z" />
    <glyph glyph-name="iacute" unicode="&#xed;" horiz-adv-x="211" 
d="M71 381q0 8 5.5 13.5t13.5 5.5h31q8 0 13.5 -5.5t5.5 -13.5v-362q0 -8 -5.5 -13.5t-13.5 -5.5h-31q-8 0 -13.5 5.5t-5.5 13.5v362zM6 583q-3 6 -1 11.5t7 7.5l150 84q5 3 13.5 3.5t12.5 -6.5l18 -36q3 -6 1.5 -12.5t-7.5 -8.5l-161 -67q-11 -5 -15.5 -4.5t-7.5 6.5z" />
    <glyph glyph-name="icircumflex" unicode="&#xee;" horiz-adv-x="211" 
d="M71 381q0 8 5.5 13.5t13.5 5.5h31q8 0 13.5 -5.5t5.5 -13.5v-362q0 -8 -5.5 -13.5t-13.5 -5.5h-31q-8 0 -13.5 5.5t-5.5 13.5v362zM-32 573q-4 5 -1.5 10.5t7.5 8.5l120 94q5 4 13 4t13 -4l120 -94q5 -3 7.5 -8.5t-1.5 -10.5q-3 -5 -6.5 -10.5t-8 -10t-10 -5.5t-12.5 4
l-102 70l-102 -68q-9 -6 -14 -4.5t-9 6.5z" />
    <glyph glyph-name="idieresis" unicode="&#xef;" horiz-adv-x="211" 
d="M71 381q0 8 5.5 13.5t13.5 5.5h31q8 0 13.5 -5.5t5.5 -13.5v-362q0 -8 -5.5 -13.5t-13.5 -5.5h-31q-8 0 -13.5 5.5t-5.5 13.5v362zM202 585q-20 0 -33.5 13.5t-13.5 33.5t13.5 34t33.5 14t34 -14t14 -34t-14 -33.5t-34 -13.5zM9 585q-20 0 -33.5 13.5t-13.5 33.5t13.5 34
t33.5 14t34 -14t14 -34t-14 -33.5t-34 -13.5z" />
    <glyph glyph-name="eth" unicode="&#xf0;" horiz-adv-x="544" 
d="M41 219q0 50 17.5 90t47.5 68.5t69 43.5t81 15q32 0 60 -7.5t48 -15.5q24 -10 44 -22q-14 51 -50 95t-78 77l-97 -56q-7 -4 -14.5 -1.5t-10.5 8.5l-4 7q-4 6 -2.5 13.5t8.5 11.5l80 46q-38 24 -62 36t-37 17q-17 7 -8 24l13 27q5 12 20 7q22 -8 59 -26t79 -48l70 40
q8 5 15 2.5t11 -9.5l4 -7q4 -6 2 -13t-9 -12l-54 -31q30 -26 57.5 -58.5t48.5 -72.5t33.5 -88t12.5 -105q0 -60 -13.5 -112t-42 -90.5t-72.5 -60.5t-105 -22q-49 0 -89.5 18t-70 49t-45.5 73t-16 89zM112 215q0 -32 11.5 -61t32 -51t47.5 -34.5t59 -12.5q51 0 85 25
t52.5 62.5t23 81t-1.5 81.5q-19 18 -44 32q-21 12 -50 22.5t-64 10.5q-32 0 -59.5 -12t-47.5 -33t-32 -49.5t-12 -61.5z" />
    <glyph glyph-name="ntilde" unicode="&#xf1;" horiz-adv-x="495" 
d="M71 381q0 8 5.5 13.5t13.5 5.5h19q13 0 16 -12l9 -31q17 15 39 26q19 10 44 18.5t57 8.5q43 0 73 -13.5t48 -37.5t26 -57t8 -72v-211q0 -8 -5.5 -13.5t-13.5 -5.5h-32q-8 0 -13.5 5.5t-5.5 13.5v211q0 57 -24 85t-66 28q-29 0 -52.5 -9t-40.5 -20q-20 -12 -36 -28v-267
q0 -8 -5.5 -13.5t-13.5 -5.5h-31q-8 0 -13.5 5.5t-5.5 13.5v362zM109 584q-6 3 -6 10t2 12q3 7 8.5 21t16 28t26.5 24.5t41 10.5q22 0 38 -11.5t28 -25.5t22 -25.5t22 -11.5q10 0 18 5.5t13 13.5t8.5 17t5.5 15q5 16 23 8l16 -8q9 -5 7.5 -13t-3.5 -13q-4 -11 -10.5 -25
t-17 -26.5t-25.5 -21t-36 -8.5t-36.5 11.5t-28.5 26t-24 26t-21 11.5q-20 0 -29.5 -17t-14.5 -33q-2 -8 -8.5 -11.5t-16.5 1.5z" />
    <glyph glyph-name="ograve" unicode="&#xf2;" 
d="M42 201q0 42 15.5 80t42.5 66.5t63 45.5t78 17t78 -17t63 -45.5t42.5 -66.5t15.5 -80q0 -43 -15.5 -81.5t-42.5 -67t-63 -45.5t-78 -17t-78 17t-63 45.5t-42.5 67t-15.5 81.5zM111 201q0 -30 10 -57t27.5 -46.5t41.5 -31t51 -11.5t51 11.5t41.5 31t27.5 46.5t10 57
t-10 56t-27.5 45.5t-41.5 30.5t-51 11t-51 -11t-41.5 -30.5t-27.5 -45.5t-10 -56zM147 626q-6 2 -7.5 8.5t1.5 12.5l18 36q4 7 12.5 6.5t13.5 -3.5l150 -84q5 -2 7 -7.5t-1 -11.5l-10 -22q-3 -6 -7.5 -6.5t-15.5 4.5z" />
    <glyph glyph-name="oacute" unicode="&#xf3;" 
d="M42 201q0 42 15.5 80t42.5 66.5t63 45.5t78 17t78 -17t63 -45.5t42.5 -66.5t15.5 -80q0 -43 -15.5 -81.5t-42.5 -67t-63 -45.5t-78 -17t-78 17t-63 45.5t-42.5 67t-15.5 81.5zM111 201q0 -30 10 -57t27.5 -46.5t41.5 -31t51 -11.5t51 11.5t41.5 31t27.5 46.5t10 57
t-10 56t-27.5 45.5t-41.5 30.5t-51 11t-51 -11t-41.5 -30.5t-27.5 -45.5t-10 -56zM141 583q-3 6 -1 11.5t7 7.5l150 84q5 3 13.5 3.5t12.5 -6.5l18 -36q3 -6 1.5 -12.5t-7.5 -8.5l-161 -67q-11 -5 -15.5 -4.5t-7.5 6.5z" />
    <glyph glyph-name="ocircumflex" unicode="&#xf4;" 
d="M42 201q0 42 15.5 80t42.5 66.5t63 45.5t78 17t78 -17t63 -45.5t42.5 -66.5t15.5 -80q0 -43 -15.5 -81.5t-42.5 -67t-63 -45.5t-78 -17t-78 17t-63 45.5t-42.5 67t-15.5 81.5zM111 201q0 -30 10 -57t27.5 -46.5t41.5 -31t51 -11.5t51 11.5t41.5 31t27.5 46.5t10 57
t-10 56t-27.5 45.5t-41.5 30.5t-51 11t-51 -11t-41.5 -30.5t-27.5 -45.5t-10 -56zM102 573q-4 5 -1.5 10.5t7.5 8.5l120 94q5 4 13 4t13 -4l120 -94q5 -3 7.5 -8.5t-1.5 -10.5q-3 -5 -6.5 -10.5t-8 -10t-10 -5.5t-12.5 4l-102 70l-102 -68q-9 -6 -14 -4.5t-9 6.5z" />
    <glyph glyph-name="otilde" unicode="&#xf5;" 
d="M42 201q0 42 15.5 80t42.5 66.5t63 45.5t78 17t78 -17t63 -45.5t42.5 -66.5t15.5 -80q0 -43 -15.5 -81.5t-42.5 -67t-63 -45.5t-78 -17t-78 17t-63 45.5t-42.5 67t-15.5 81.5zM111 201q0 -30 10 -57t27.5 -46.5t41.5 -31t51 -11.5t51 11.5t41.5 31t27.5 46.5t10 57
t-10 56t-27.5 45.5t-41.5 30.5t-51 11t-51 -11t-41.5 -30.5t-27.5 -45.5t-10 -56zM99 584q-6 3 -6 10t2 12q3 7 8.5 21t16 28t26.5 24.5t41 10.5q22 0 38 -11.5t28 -25.5t22 -25.5t22 -11.5q10 0 18 5.5t13 13.5t8.5 17t5.5 15q5 16 23 8l16 -8q9 -5 7.5 -13t-3.5 -13
q-4 -11 -10.5 -25t-17 -26.5t-25.5 -21t-36 -8.5t-36.5 11.5t-28.5 26t-24 26t-21 11.5q-20 0 -29.5 -17t-14.5 -33q-2 -8 -8.5 -11.5t-16.5 1.5z" />
    <glyph glyph-name="odieresis" unicode="&#xf6;" 
d="M42 201q0 42 15.5 80t42.5 66.5t63 45.5t78 17t78 -17t63 -45.5t42.5 -66.5t15.5 -80q0 -43 -15.5 -81.5t-42.5 -67t-63 -45.5t-78 -17t-78 17t-63 45.5t-42.5 67t-15.5 81.5zM111 201q0 -30 10 -57t27.5 -46.5t41.5 -31t51 -11.5t51 11.5t41.5 31t27.5 46.5t10 57
t-10 56t-27.5 45.5t-41.5 30.5t-51 11t-51 -11t-41.5 -30.5t-27.5 -45.5t-10 -56zM336 585q-20 0 -33.5 13.5t-13.5 33.5t13.5 34t33.5 14t34 -14t14 -34t-14 -33.5t-34 -13.5zM143 585q-20 0 -33.5 13.5t-13.5 33.5t13.5 34t33.5 14t34 -14t14 -34t-14 -33.5t-34 -13.5z
" />
    <glyph glyph-name="divide" unicode="&#xf7;" horiz-adv-x="538" 
d="M266 472q-23 0 -40 17t-17 40q0 24 17 40.5t40 16.5q24 0 40.5 -16.5t16.5 -40.5q0 -23 -16.5 -40t-40.5 -17zM79 314q-8 0 -13.5 5.5t-5.5 13.5v28q0 8 5.5 13.5t13.5 5.5h381q8 0 13 -5.5t5 -13.5v-28q0 -8 -5 -13.5t-13 -5.5h-381zM209 171q0 24 17 40.5t40 16.5
q24 0 40.5 -16.5t16.5 -40.5q0 -23 -16.5 -40t-40.5 -17q-23 0 -40 17t-17 40z" />
    <glyph glyph-name="oslash" unicode="&#xf8;" horiz-adv-x="480" 
d="M68 29q-6 5 -6 13t5 13l16 16q-19 27 -29.5 61t-10.5 70q0 42 15.5 80t42 66.5t62.5 45t78 16.5q37 0 69.5 -13.5t58.5 -36.5l21 21q6 6 14 6t13 -6l5 -5q6 -5 6 -13t-6 -13l-23 -23q19 -26 29.5 -58t10.5 -67q0 -43 -15.5 -81.5t-42 -67.5t-62.5 -46t-78 -17
q-37 0 -69.5 12.5t-58.5 35.5l-14 -14q-5 -6 -13 -5.5t-14 5.5zM322 313q-34 31 -81 31q-27 0 -51 -11t-41 -30.5t-27 -45t-10 -55.5q0 -47 20 -82zM160 85q35 -30 81 -30q27 0 51 11.5t41 31.5t27 47t10 57q0 42 -20 76z" />
    <glyph glyph-name="ugrave" unicode="&#xf9;" horiz-adv-x="485" 
d="M66 381q0 8 5.5 13.5t13.5 5.5h32q8 0 13.5 -5.5t5.5 -13.5v-211q0 -57 24 -85t66 -28q29 0 51 8.5t37 19.5q18 12 31 29v267q0 8 5.5 13.5t13.5 5.5h31q8 0 13.5 -5.5t5.5 -13.5v-362q0 -8 -5.5 -13.5t-13.5 -5.5h-19q-8 0 -12 4.5t-6 12.5l-7 26q-15 -16 -34 -27
q-17 -10 -41 -18t-55 -8q-44 0 -73.5 13.5t-47.5 37.5t-26 57t-8 73v210zM154 626q-6 2 -7.5 8.5t1.5 12.5l18 36q4 7 12.5 6.5t13.5 -3.5l150 -84q5 -2 7 -7.5t-1 -11.5l-10 -22q-3 -6 -7.5 -6.5t-15.5 4.5z" />
    <glyph glyph-name="uacute" unicode="&#xfa;" horiz-adv-x="485" 
d="M66 381q0 8 5.5 13.5t13.5 5.5h32q8 0 13.5 -5.5t5.5 -13.5v-211q0 -57 24 -85t66 -28q29 0 51 8.5t37 19.5q18 12 31 29v267q0 8 5.5 13.5t13.5 5.5h31q8 0 13.5 -5.5t5.5 -13.5v-362q0 -8 -5.5 -13.5t-13.5 -5.5h-19q-8 0 -12 4.5t-6 12.5l-7 26q-15 -16 -34 -27
q-17 -10 -41 -18t-55 -8q-44 0 -73.5 13.5t-47.5 37.5t-26 57t-8 73v210zM147 583q-3 6 -1 11.5t7 7.5l150 84q5 3 13.5 3.5t12.5 -6.5l18 -36q3 -6 1.5 -12.5t-7.5 -8.5l-161 -67q-11 -5 -15.5 -4.5t-7.5 6.5z" />
    <glyph glyph-name="ucircumflex" unicode="&#xfb;" horiz-adv-x="485" 
d="M66 381q0 8 5.5 13.5t13.5 5.5h32q8 0 13.5 -5.5t5.5 -13.5v-211q0 -57 24 -85t66 -28q29 0 51 8.5t37 19.5q18 12 31 29v267q0 8 5.5 13.5t13.5 5.5h31q8 0 13.5 -5.5t5.5 -13.5v-362q0 -8 -5.5 -13.5t-13.5 -5.5h-19q-8 0 -12 4.5t-6 12.5l-7 26q-15 -16 -34 -27
q-17 -10 -41 -18t-55 -8q-44 0 -73.5 13.5t-47.5 37.5t-26 57t-8 73v210zM107 573q-4 5 -1.5 10.5t7.5 8.5l120 94q5 4 13 4t13 -4l120 -94q5 -3 7.5 -8.5t-1.5 -10.5q-3 -5 -6.5 -10.5t-8 -10t-10 -5.5t-12.5 4l-102 70l-102 -68q-9 -6 -14 -4.5t-9 6.5z" />
    <glyph glyph-name="udieresis" unicode="&#xfc;" horiz-adv-x="485" 
d="M66 381q0 8 5.5 13.5t13.5 5.5h32q8 0 13.5 -5.5t5.5 -13.5v-211q0 -57 24 -85t66 -28q29 0 51 8.5t37 19.5q18 12 31 29v267q0 8 5.5 13.5t13.5 5.5h31q8 0 13.5 -5.5t5.5 -13.5v-362q0 -8 -5.5 -13.5t-13.5 -5.5h-19q-8 0 -12 4.5t-6 12.5l-7 26q-15 -16 -34 -27
q-17 -10 -41 -18t-55 -8q-44 0 -73.5 13.5t-47.5 37.5t-26 57t-8 73v210zM339 585q-20 0 -33.5 13.5t-13.5 33.5t13.5 34t33.5 14t34 -14t14 -34t-14 -33.5t-34 -13.5zM146 585q-20 0 -33.5 13.5t-13.5 33.5t13.5 34t33.5 14t34 -14t14 -34t-14 -33.5t-34 -13.5z" />
    <glyph glyph-name="yacute" unicode="&#xfd;" horiz-adv-x="466" 
d="M14 378q-10 22 15 22h44q11 0 17 -11l148 -306h1l140 306q5 11 17 11h38q11 0 15.5 -6.5t-0.5 -16.5l-307 -665q-2 -5 -7 -8.5t-10 -3.5h-37q-11 0 -16 7t0 18l128 276zM138 583q-3 6 -1 11.5t7 7.5l150 84q5 3 13.5 3.5t12.5 -6.5l18 -36q3 -6 1.5 -12.5t-7.5 -8.5
l-161 -67q-11 -5 -15.5 -4.5t-7.5 6.5z" />
    <glyph glyph-name="thorn" unicode="&#xfe;" 
d="M141 -281q0 -8 -5.5 -13.5t-13.5 -5.5h-31q-8 0 -13.5 5.5t-5.5 13.5v962q0 8 5.5 13.5t13.5 5.5h31q8 0 13.5 -5.5t5.5 -13.5v-309q11 10 28 19q14 7 34.5 13t47.5 6q43 0 78 -17t59.5 -45.5t38 -67t13.5 -81.5q0 -44 -14.5 -82t-40 -66.5t-61 -44.5t-76.5 -16
q-25 0 -44.5 5t-33.5 11q-17 7 -29 17v-304zM142 92q13 -10 28 -18q13 -7 30.5 -12t38.5 -5q29 0 53 11t41.5 30.5t27 45.5t9.5 56q0 29 -7.5 55.5t-23 47t-39.5 32.5t-56 12q-25 0 -43.5 -8t-31.5 -17q-15 -11 -27 -24v-206z" />
    <glyph glyph-name="ydieresis" unicode="&#xff;" horiz-adv-x="466" 
d="M14 378q-10 22 15 22h44q11 0 17 -11l148 -306h1l140 306q5 11 17 11h38q11 0 15.5 -6.5t-0.5 -16.5l-307 -665q-2 -5 -7 -8.5t-10 -3.5h-37q-11 0 -16 7t0 18l128 276zM334 585q-20 0 -33.5 13.5t-13.5 33.5t13.5 34t33.5 14t34 -14t14 -34t-14 -33.5t-34 -13.5z
M141 585q-20 0 -33.5 13.5t-13.5 33.5t13.5 34t33.5 14t34 -14t14 -34t-14 -33.5t-34 -13.5z" />
    <glyph glyph-name="dotlessi" unicode="&#x131;" horiz-adv-x="211" 
d="M71 381q0 8 5.5 13.5t13.5 5.5h31q8 0 13.5 -5.5t5.5 -13.5v-362q0 -8 -5.5 -13.5t-13.5 -5.5h-31q-8 0 -13.5 5.5t-5.5 13.5v362z" />
    <glyph glyph-name="OE" unicode="&#x152;" horiz-adv-x="967" 
d="M51 349q0 75 28 141t76.5 114.5t114 77t140.5 28.5q17 0 32.5 -1.5t27.5 -3.5q14 -3 26 -5h394q8 0 13.5 -5.5t5.5 -13.5v-29q0 -8 -5.5 -13.5t-13.5 -5.5h-336v-244h287q8 0 13.5 -5.5t5.5 -13.5v-29q0 -8 -5.5 -13.5t-13.5 -5.5h-287v-255h336q8 0 13.5 -5.5t5.5 -13.5
v-29q0 -8 -5.5 -13.5t-13.5 -5.5h-394q-12 -3 -26 -5q-12 -2 -27.5 -3.5t-32.5 -1.5q-75 0 -140.5 28t-114 76.5t-76.5 114t-28 140.5zM121 349q0 -60 23 -112.5t62 -91.5t91.5 -62t112.5 -23q36 0 67 7v564q-35 8 -67 8q-60 0 -112.5 -23t-91.5 -62.5t-62 -92t-23 -112.5z
" />
    <glyph glyph-name="oe" unicode="&#x153;" horiz-adv-x="779" 
d="M41 202q0 42 15.5 80t42 66.5t62.5 45t78 16.5q50 0 91.5 -23.5t68.5 -62.5q26 40 67 63t94 23q37 0 70 -13t58 -37t39 -58t14 -75q0 -5 -0.5 -13.5t-1.5 -13.5q-2 -17 -18 -17h-286q3 -25 15 -48.5t29.5 -41.5t40 -28.5t47.5 -10.5q32 0 57 9t42 20q11 6 16.5 8t11.5 -6
q5 -6 8.5 -11.5t8.5 -11.5q5 -7 6 -12.5t-10 -13.5q-18 -14 -56.5 -30t-90.5 -16q-53 0 -94 23.5t-67 62.5q-27 -39 -68.5 -62.5t-91.5 -23.5q-42 0 -78 17t-62.5 46t-42 67.5t-15.5 81.5zM673 238q-1 23 -10.5 43t-24.5 34.5t-35 22.5t-43 8q-51 0 -85 -30.5t-39 -77.5h237
zM110 202q0 -30 10 -57t27 -47t41 -31.5t51 -11.5t51 11.5t41 31.5t27 47t10 57t-10 55.5t-27 45t-41 30.5t-51 11t-51 -11t-41 -30.5t-27 -45t-10 -55.5z" />
    <glyph glyph-name="Scaron" unicode="&#x160;" horiz-adv-x="533" 
d="M63 71q-6 5 -10.5 12.5t4.5 21.5q4 5 7.5 9.5t7.5 9.5q8 10 16 14t19 -5q3 -2 17 -14.5t36.5 -26t52.5 -24.5t63 -11q30 0 55 9t42.5 24t27 35t9.5 42q0 52 -44 87t-131 71q-41 18 -74 36.5t-55.5 42t-34.5 54.5t-12 74q0 25 11 56t36 58t65.5 45.5t100.5 18.5
q37 0 68 -8t54 -18q26 -11 49 -25q5 -2 10 -11t-4 -23q-3 -5 -6 -9.5t-6 -9.5q-7 -11 -15 -13.5t-20 4.5q-3 1 -15 8.5t-30 16t-40.5 15t-45.5 6.5q-40 0 -66.5 -11.5t-42.5 -28t-22.5 -35.5t-6.5 -35q0 -50 36 -82.5t99 -58.5q51 -21 92 -42t70 -46.5t44.5 -58t15.5 -75.5
q0 -39 -17.5 -72t-47 -57t-68.5 -37.5t-83 -13.5t-81 11t-64 25t-44 27t-22 18zM140 866q-5 3 -7.5 8.5t1.5 10.5l14 18q4 5 9 6.5t14 -4.5l102 -68l102 70q9 6 14 4.5t9 -6.5l14 -20q3 -5 2 -9t-5 -8t-8.5 -7l-7.5 -5l-107 -84q-5 -4 -13 -4t-13 4z" />
    <glyph glyph-name="scaron" unicode="&#x161;" horiz-adv-x="356" 
d="M52 35q-4 3 -5.5 9.5t0.5 11.5q3 5 7.5 13t6.5 12q9 14 27 3q13 -10 28 -18q13 -7 29.5 -12t36.5 -5q31 0 48 14t17 34q0 26 -22 42t-66 38q-20 10 -40 21.5t-36.5 27t-27 35t-10.5 45.5q0 16 7 34t22 33.5t39 26t59 10.5q39 0 68 -10.5t43 -20.5q7 -5 9 -14t-3 -17
l-8 -16q-5 -8 -13.5 -10.5t-15.5 1.5q-13 7 -26 12q-11 5 -25.5 8.5t-28.5 3.5q-34 0 -45.5 -13.5t-11.5 -26.5q0 -25 21.5 -39t52.5 -29q26 -12 49.5 -25t41.5 -28.5t29 -35.5t11 -47q0 -22 -10 -42.5t-28 -36t-43.5 -25t-56.5 -9.5q-50 0 -82 16t-48 29zM54 640
q-5 3 -7.5 8.5t1.5 10.5l14 18q4 5 9 6.5t14 -4.5l102 -68l102 70q9 6 14 4.5t9 -6.5l14 -20q3 -5 2 -9t-5 -8t-8.5 -7l-7.5 -5l-107 -84q-5 -4 -13 -4t-13 4z" />
    <glyph glyph-name="Ydieresis" unicode="&#x178;" horiz-adv-x="565" 
d="M243 337l-241 334q-6 10 -1 19.5t17 9.5h47q5 0 9.5 -3t6.5 -6l202 -279l202 279q2 3 6.5 6t9.5 3h47q12 0 17 -9.5t-1 -19.5l-244 -333v-319q0 -8 -5.5 -13.5t-13.5 -5.5h-39q-8 0 -13.5 5.5t-5.5 13.5v318zM379 792q-20 0 -33.5 13.5t-13.5 33.5t13.5 34t33.5 14
t34 -14t14 -34t-14 -33.5t-34 -13.5zM186 792q-20 0 -33.5 13.5t-13.5 33.5t13.5 34t33.5 14t34 -14t14 -34t-14 -33.5t-34 -13.5z" />
    <glyph glyph-name="Zcaron" unicode="&#x17d;" horiz-adv-x="534" 
d="M30 37l363 590v3h-315q-8 0 -13.5 5.5t-5.5 13.5v32q0 8 5.5 13.5t13.5 5.5h405q8 0 13.5 -5.5t5.5 -13.5v-13l-369 -597v-1h330q8 0 13.5 -5.5t5.5 -13.5v-32q0 -8 -5.5 -13.5t-13.5 -5.5h-414q-8 0 -13.5 5.5t-5.5 13.5v18zM152 866q-5 3 -7.5 8.5t1.5 10.5l14 18
q4 5 9 6.5t14 -4.5l102 -68l102 70q9 6 14 4.5t9 -6.5l14 -20q3 -5 2 -9t-5 -8t-8.5 -7l-7.5 -5l-107 -84q-5 -4 -13 -4t-13 4z" />
    <glyph glyph-name="zcaron" unicode="&#x17e;" horiz-adv-x="365" 
d="M36 29l196 305v3h-168q-8 0 -13 5.5t-5 13.5v25q0 8 5 13.5t13 5.5h251q11 0 17 -8.5t0 -18.5l-191 -307v-3h154q19 0 19 -19v-25q0 -8 -5.5 -13.5t-13.5 -5.5h-240q-8 0 -13.5 5.5t-5.5 13.5v10zM57 640q-5 3 -7.5 8.5t1.5 10.5l14 18q4 5 9 6.5t14 -4.5l102 -68l102 70
q9 6 14 4.5t9 -6.5l14 -20q3 -5 2 -9t-5 -8t-8.5 -7l-7.5 -5l-107 -84q-5 -4 -13 -4t-13 4z" />
    <glyph glyph-name="florin" unicode="&#x192;" horiz-adv-x="323" 
d="M103 340h-61q-8 0 -13.5 5.5t-5.5 13.5v22q0 19 19 19h61v140q0 43 12 75t32.5 53t48.5 31.5t60 10.5q42 0 69 -14t41 -27q5 -5 6 -11.5t-2 -11.5l-16 -26q-5 -8 -11.5 -7.5t-14.5 6.5q-10 8 -30 18.5t-43 10.5q-35 0 -59 -25t-24 -83v-140h116q19 0 19 -19v-22
q0 -8 -5.5 -13.5t-13.5 -5.5h-116v-480q0 -44 -12 -76t-32.5 -53t-48.5 -31t-60 -10q-42 0 -69 14t-41 27q-5 5 -6 11.5t2 11.5l16 26q5 8 11.5 7.5t14.5 -6.5q10 -8 32 -18.5t41 -10.5q35 0 59 25t24 83v480z" />
    <glyph glyph-name="circumflex" unicode="&#x2c6;" horiz-adv-x="373" 
d="M46 573q-4 5 -1.5 10.5t7.5 8.5l120 94q5 4 13 4t13 -4l120 -94q5 -3 7.5 -8.5t-1.5 -10.5q-3 -5 -6.5 -10.5t-8 -10t-10 -5.5t-12.5 4l-102 70l-102 -68q-9 -6 -14 -4.5t-9 6.5z" />
    <glyph glyph-name="tilde" unicode="&#x2dc;" horiz-adv-x="380" 
d="M46 584q-6 3 -6 10t2 12q3 7 8.5 21t16 28t26.5 24.5t41 10.5q22 0 38 -11.5t28 -25.5t22 -25.5t22 -11.5q10 0 18 5.5t13 13.5t8.5 17t5.5 15q5 16 23 8l16 -8q9 -5 7.5 -13t-3.5 -13q-4 -11 -10.5 -25t-17 -26.5t-25.5 -21t-36 -8.5t-36.5 11.5t-28.5 26t-24 26
t-21 11.5q-20 0 -29.5 -17t-14.5 -33q-2 -8 -8.5 -11.5t-16.5 1.5z" />
    <glyph glyph-name="endash" unicode="&#x2013;" horiz-adv-x="577" 
d="M104 223q-8 0 -13.5 5t-5.5 13v11q0 19 19 19h369q19 0 19 -19v-11q0 -8 -5.5 -13t-13.5 -5h-369z" />
    <glyph glyph-name="emdash" unicode="&#x2014;" horiz-adv-x="797" 
d="M104 223q-8 0 -13.5 5t-5.5 13v11q0 19 19 19h589q19 0 19 -19v-11q0 -8 -5.5 -13t-13.5 -5h-589z" />
    <glyph glyph-name="quoteleft" unicode="&#x2018;" horiz-adv-x="204" 
d="M104 427q-12 0 -24 4t-21 14t-15 27.5t-6 44.5q0 31 8.5 59.5t21.5 52.5t27.5 43t26.5 30q14 12 24 2l14 -14q4 -4 3 -10.5t-9 -13.5q-4 -3 -14 -13t-20.5 -26t-19 -38t-8.5 -49q4 1 12 1q23 0 40 -17t17 -40q0 -24 -17 -40.5t-40 -16.5z" />
    <glyph glyph-name="quoteright" unicode="&#x2019;" horiz-adv-x="202" 
d="M46 448q-4 4 -3 10.5t9 13.5q4 3 14 13t20.5 26t19 38t8.5 49q-4 -1 -12 -1q-23 0 -40 17t-17 40q0 24 17 40.5t40 16.5q12 0 24 -4t21 -14t15 -27.5t6 -44.5q0 -31 -8.5 -59.5t-21.5 -52.5t-27.5 -43t-26.5 -30q-14 -12 -24 -2z" />
    <glyph glyph-name="quotesinglbase" unicode="&#x201a;" horiz-adv-x="233" 
d="M55 47q0 24 17 40.5t40 16.5q12 0 24 -4t21 -14t15 -27.5t6 -44.5q0 -31 -8.5 -59.5t-21.5 -52.5t-27.5 -43t-26.5 -30q-14 -12 -24 -2l-14 14q-4 4 -3 10.5t9 13.5q4 3 14 13t20.5 26t19 38t8.5 49q-4 -1 -12 -1q-23 0 -40 17t-17 40z" />
    <glyph glyph-name="quotedblleft" unicode="&#x201c;" horiz-adv-x="384" 
d="M284 429q-12 0 -24 4t-21 14t-15 27.5t-6 44.5q0 31 8.5 59.5t21.5 52.5t27.5 43t26.5 30q14 12 24 2l14 -14q4 -4 3 -10.5t-9 -13.5q-4 -3 -14 -13t-20.5 -26t-19 -38t-8.5 -49q4 1 12 1q23 0 40 -17t17 -40q0 -24 -17 -40.5t-40 -16.5zM104 429q-12 0 -24 4t-21 14
t-15 27.5t-6 44.5q0 31 8.5 59.5t21.5 52.5t27.5 43t26.5 30q14 12 24 2l14 -14q4 -4 3 -10.5t-9 -13.5q-4 -3 -14 -13t-20.5 -26t-19 -38t-8.5 -49q4 1 12 1q23 0 40 -17t17 -40q0 -24 -17 -40.5t-40 -16.5z" />
    <glyph glyph-name="quotedblright" unicode="&#x201d;" horiz-adv-x="382" 
d="M226 448q-4 4 -3 10.5t9 13.5q4 3 14 13t20.5 26t19 38t8.5 49q-4 -1 -12 -1q-23 0 -40 17t-17 40q0 24 17 40.5t40 16.5q12 0 24 -4t21 -14t15 -27.5t6 -44.5q0 -31 -8.5 -59.5t-21.5 -52.5t-27.5 -43t-26.5 -30q-14 -12 -24 -2zM46 448q-4 4 -3 10.5t9 13.5q4 3 14 13
t20.5 26t19 38t8.5 49q-4 -1 -12 -1q-23 0 -40 17t-17 40q0 24 17 40.5t40 16.5q12 0 24 -4t21 -14t15 -27.5t6 -44.5q0 -31 -8.5 -59.5t-21.5 -52.5t-27.5 -43t-26.5 -30q-14 -12 -24 -2z" />
    <glyph glyph-name="quotedblbase" unicode="&#x201e;" horiz-adv-x="413" 
d="M235 47q0 24 17 40.5t40 16.5q12 0 24 -4t21 -14t15 -27.5t6 -44.5q0 -31 -8.5 -59.5t-21.5 -52.5t-27.5 -43t-26.5 -30q-14 -12 -24 -2l-14 14q-4 4 -3 10.5t9 13.5q4 3 14 13t20.5 26t19 38t8.5 49q-4 -1 -12 -1q-23 0 -40 17t-17 40zM55 47q0 24 17 40.5t40 16.5
q12 0 24 -4t21 -14t15 -27.5t6 -44.5q0 -31 -8.5 -59.5t-21.5 -52.5t-27.5 -43t-26.5 -30q-14 -12 -24 -2l-14 14q-4 4 -3 10.5t9 13.5q4 3 14 13t20.5 26t19 38t8.5 49q-4 -1 -12 -1q-23 0 -40 17t-17 40z" />
    <glyph glyph-name="dagger" unicode="&#x2020;" horiz-adv-x="618" 
d="M69 334q-8 0 -13.5 5.5t-5.5 13.5v28q0 8 5.5 13.5t13.5 5.5h195v281q0 8 5.5 13.5t13.5 5.5h50q8 0 13.5 -5.5t5.5 -13.5v-281h198q8 0 13 -5.5t5 -13.5v-28q0 -8 -5 -13.5t-13 -5.5h-200l-17 -618q0 -6 -6 -11t-13 -5h-12q-7 0 -13 5t-6 11l-17 618h-197z" />
    <glyph glyph-name="daggerdbl" unicode="&#x2021;" horiz-adv-x="618" 
d="M80 47q0 8 5.5 13.5t13.5 5.5h174l-9 333v1h-195q-8 0 -13.5 5.5t-5.5 13.5v28q0 8 5.5 13.5t13.5 5.5h195v215q0 8 5.5 13.5t13.5 5.5h50q8 0 13.5 -5.5t5.5 -13.5v-215h198q8 0 13 -5.5t5 -13.5v-28q0 -8 -5 -13.5t-13 -5.5h-198l-9 -334h177q8 0 13 -5.5t5 -13.5v-28
q0 -8 -5 -13.5t-13 -5.5h-179l-8 -284q0 -6 -6 -11t-13 -5h-12q-7 0 -13 5t-6 11l-8 284h-176q-8 0 -13.5 5.5t-5.5 13.5v28z" />
    <glyph glyph-name="bullet" unicode="&#x2022;" horiz-adv-x="354" 
d="M175 119q-21 0 -40.5 8.5t-33.5 22.5t-22.5 33.5t-8.5 40.5q0 22 8.5 42t22.5 35t33.5 23.5t40.5 8.5q22 0 42 -8.5t35 -23.5t23.5 -35t8.5 -42q0 -21 -8.5 -40.5t-23.5 -33.5t-35 -22.5t-42 -8.5z" />
    <glyph glyph-name="ellipsis" unicode="&#x2026;" horiz-adv-x="624" 
d="M450 47q0 24 17 40.5t40 16.5q24 0 40.5 -16.5t16.5 -40.5q0 -23 -16.5 -40t-40.5 -17q-23 0 -40 17t-17 40zM253 47q0 24 17 40.5t40 16.5q24 0 40.5 -16.5t16.5 -40.5q0 -23 -16.5 -40t-40.5 -17q-23 0 -40 17t-17 40zM60 47q0 24 17 40.5t40 16.5q24 0 40.5 -16.5
t16.5 -40.5q0 -23 -16.5 -40t-40.5 -17q-23 0 -40 17t-17 40z" />
    <glyph glyph-name="perthousand" unicode="&#x2030;" horiz-adv-x="986" 
d="M185 441q-28 0 -52.5 10.5t-43 29t-29 43t-10.5 52.5t10.5 52.5t29 43t43 29t52.5 10.5t52.5 -10.5t43 -29t29 -43t10.5 -52.5t-10.5 -52.5t-29 -43t-43 -29t-52.5 -10.5zM486 690q6 10 17 10h16q11 0 16.5 -8.5t0.5 -18.5l-345 -663q-2 -3 -6 -6.5t-11 -3.5h-14
q-11 0 -16.5 8.5t-0.5 18.5zM185 498q31 0 53.5 22.5t22.5 55.5q0 31 -22.5 53.5t-53.5 22.5q-33 0 -55.5 -22.5t-22.5 -53.5q0 -33 22.5 -55.5t55.5 -22.5zM676 124q0 28 10.5 52.5t29 43t43 29t52.5 10.5t52.5 -10.5t43 -29t29 -43t10.5 -52.5t-10.5 -52.5t-29 -43
t-43 -29t-52.5 -10.5t-52.5 10.5t-43 29t-29 43t-10.5 52.5zM366 124q0 28 10.5 52.5t29 43t43 29t52.5 10.5t52.5 -10.5t43 -29t29 -43t10.5 -52.5t-10.5 -52.5t-29 -43t-43 -29t-52.5 -10.5t-52.5 10.5t-43 29t-29 43t-10.5 52.5zM733 124q0 -33 22.5 -55.5t55.5 -22.5
q31 0 53.5 22.5t22.5 55.5q0 31 -22.5 53.5t-53.5 22.5q-33 0 -55.5 -22.5t-22.5 -53.5zM423 124q0 -33 22.5 -55.5t55.5 -22.5q31 0 53.5 22.5t22.5 55.5q0 31 -22.5 53.5t-53.5 22.5q-33 0 -55.5 -22.5t-22.5 -53.5z" />
    <glyph glyph-name="guilsinglleft" unicode="&#x2039;" horiz-adv-x="252" 
d="M41 194q-5 6 -4 12.5t4 11.5l109 148q4 5 8 8.5t10 3.5h14q13 0 17 -9.5t-2 -21.5l-74 -139l71 -147q5 -12 1.5 -21t-16.5 -9h-19q-9 0 -15 8z" />
    <glyph glyph-name="guilsinglright" unicode="&#x203a;" horiz-adv-x="252" 
d="M72 31q-13 0 -16.5 9t1.5 21l71 147l-74 139q-6 12 -2 21.5t17 9.5h14q6 0 10.5 -3.5t7.5 -8.5l109 -148q3 -5 4 -11.5t-4 -12.5l-104 -155q-6 -8 -15 -8h-19z" />
    <glyph glyph-name="Euro" unicode="&#x20ac;" horiz-adv-x="731" 
d="M38 253q-8 0 -13 5.5t-5 13.5v7q0 8 5 13.5t13 5.5h40q-3 24 -3 51v12t1 12h-38q-8 0 -13 5.5t-5 13.5v7q0 8 5 13.5t13 5.5h43q12 63 44 116.5t79 92.5t106.5 61t125.5 22q76 0 133.5 -24.5t108.5 -68.5q6 -6 6.5 -14t-5.5 -14l-24 -24q-7 -7 -16 -7t-17 8
q-38 35 -87 53.5t-100 18.5t-95.5 -17t-80 -46.5t-60 -70t-35.5 -86.5h281q8 0 13.5 -5.5t5.5 -13.5v-8q0 -8 -5.5 -13t-13.5 -5h-288q-1 -6 -1 -11.5v-11.5q0 -29 4 -52h245q8 0 13.5 -5.5t5.5 -13.5v-8q0 -8 -5.5 -13t-13.5 -5h-233q14 -41 39.5 -75.5t59.5 -60t75.5 -40
t88.5 -14.5q32 0 58.5 6.5t49.5 17t43.5 24.5t40.5 29q12 10 24 3l29 -29q6 -5 5 -13.5t-6 -13.5q-51 -50 -113.5 -73.5t-129.5 -23.5q-63 0 -119 19.5t-102 54.5t-78.5 83.5t-48.5 105.5h-50z" />
    <glyph glyph-name="trademark" unicode="&#x2122;" horiz-adv-x="721" 
d="M331 398q-10 0 -15.5 7t-3.5 16l52 269q2 6 7 10.5t12 4.5h4q5 0 10 -3.5t7 -7.5l81 -212l82 212q2 4 7 7.5t10 3.5h4q6 0 11.5 -4.5t7.5 -10.5l53 -270q2 -9 -4 -15.5t-15 -6.5h-12q-7 0 -12 5t-7 12l-34 165l-72 -176q-2 -4 -6.5 -6.5t-9.5 -2.5h-6q-4 0 -9.5 2.5
t-7.5 7.5l-70 175l-35 -166q-2 -6 -7.5 -11t-11.5 -5h-10zM158 398q-8 0 -13.5 5.5t-5.5 13.5v234h-70q-8 0 -13.5 5.5t-5.5 13.5v11q0 8 5.5 13.5t13.5 5.5h191q8 0 13.5 -5.5t5.5 -13.5v-11q0 -19 -19 -19h-70v-234q0 -8 -5.5 -13.5t-13.5 -5.5h-13z" />
    <glyph glyph-name="glyph168" horiz-adv-x="373" 
d="M52 640q-5 3 -7.5 8.5t1.5 10.5l14 18q4 5 9 6.5t14 -4.5l102 -68l102 70q9 6 14 4.5t9 -6.5l14 -20q3 -5 2 -9t-5 -8t-8.5 -7l-7.5 -5l-107 -84q-5 -4 -13 -4t-13 4z" />
    <glyph glyph-name="glyph172" horiz-adv-x="290" 
d="M145 492q-23 0 -43 8.5t-34.5 23t-23 34.5t-8.5 43t8.5 43t23 34.5t34.5 23t43 8.5q22 0 42 -8.5t35 -23t23.5 -34.5t8.5 -43t-8.5 -43t-23.5 -34.5t-35 -23t-42 -8.5zM145 540q24 0 41.5 18.5t17.5 42.5t-17.5 41.5t-41.5 17.5t-42.5 -17.5t-18.5 -41.5t18.5 -42.5
t42.5 -18.5z" />
  </font>
</defs>
</svg>
